Доктор Стрэндж

Лицензия

Добыча

Дубляж

Дом дракона

1 сезон

Тор

Дубляж

В эфире

Дубляж

Там, где раки поют

MVO

Властелин колец

1 сезон

GLOBAL

pack

Рекомендуем

30

Пиратка

ВАЖНО

ВАЖНО

Ghostwire

Пиратка

jed

RePack

nioh2

RePack

RDR2

RePack

NEED FOR SPEED™ PAYBACK

RePack

скачать торрент

Кинопоиск HD

Острые козырьки 6 сезон

6 сезон

FAR CRY 6

RePack

скачать торрент

Лицензия

скачать торрент

MVO

1

1 сезон

скачать торрент

1 сезон

скачать торрент

Лицензия

  

Киберпанк: Бегущие по краю / Cyberpunk: Edgerunners / Сезон: 1 / Серии: 1-10 из 10 (Хироюки Имаиси) [2022, Аниме, мультфильм, фантастика, боевик, фэнтези, WEB-DL 1080p] MVO [LostFilm]

Киберпанк: Бегущие по краю через торрент pb.wtf

Раздают: 4 [ 197 KB/s ] Качают: 1 [ 0 KB/s ]
Размер: 8.2 GB | Добавлен: 1 мес. 21 д. назад | Торрент скачан:185 раз
Смотреть онлайн | Скачать   

29-09-2022 18:03 Киберпанк: Бегущие по краю Скачать торрент  

Киберпанк: Бегущие по краю
Cyberpunk: Edgerunners

«---»

Год выпуска: 2022
Страна: Япония
Студия: CD Projekt RED, Trigger
Жанр: Аниме, мультфильм, фантастика, боевик, фэнтези
Продолжительность: ~ 00:25:00 серия
Перевод: Профессиональный (многоголосый) | LostFilm
Субтитры: Русские (Full |Netflix, lost6fox|), английские (Forced, Full, SDH)

Режиссер: Хироюки Имаиси

rating

В ролях: Кэнъитиро Охаси, Аои Юки, Кэндзиро Цуда, Кадзухико Иноуэ, Ватару Такаги, Хироки Тоти, Томоё Куросава, Такако Хонда, Митико Кайдэн, Юрика Хино

Описание: «Киберпанк: Бегущие по краю» — аниме-сериал, разработанный японской анимационной студией Trigger для платформы Netflix. Сериал основан на популярной видеоигре Cyberpunk 2077, вышедшей в 2020 году. Десятисерийное шоу получило мгновенное признание критиков и аудитории, оценивших невероятно динамичную анимацию, дизайн персонажей и, конечно, сюжет, разворачивающийся в антиутопическом мире с высокоразвитыми технологиями.

В мире будущего люди одержимы модификациями тела, дарующими им небывалую силу и способности, которые выходят за грань обычных человеческих возможностей. Но за них, как и за все в этом мире, нужно платить. Школьник Дэвид Мартинес едва может позволить себе лицензионное обновление своих модификаций, а его мать надрывается на работе, чтобы при этом оплатить обучение сына в элитной школе, где, впрочем, выходца из небогатой семьи не очень-то жалуют. В скором времени Мартинесу представится возможность так проапгрейдить свое тело, что его заносчивым одноклассникам и не снилось, — и, конечно, такое модифицирование требует куда более опасных и захватывающих возможностей для использования, чем просиживание штанов на уроках и драки со школьными недругами.

Качество: WEB-DL 1080p
Формат: MKV

Видео: 1920x1080 at 23.976 fps, MPEG4-AVC, ~2555 kbps avg
Аудио#1: Russian: 48 kHz, AC3, 2/0 (L,R) ch, ~384 kbps avg |Многоголосый закадровый, LostFilm|
Аудио#2: Japanese: 48 kHz, E-AC3, 3/2 (L,C,R,l,r) + LFE ch, ~640 kbps avg
Аудио#3: English: 48 kHz, E-AC3, 3/2 (L,C,R,l,r) + LFE ch, ~640 kbps avg
скриншот  скриншот  скриншот  скриншот  

Общее
Уникальный идентификатор : 253404914859959162494169893713858504529 (0xBEA402E861D0D85E904562CFBB53A751)
Полное имя : Cyberpunk.Edgerunners.S01E01.Let.You.Down.mkv
Формат : Matroska
Версия формата : Version 4
Размер файла : 773 Мбайт
Продолжительность : 25 м. 36 с.
Режим общего битрейта : Переменный
Общий поток : 4 221 Кбит/сек
Дата кодирования : UTC 2022-09-18 20:21:04
Программа кодирования : mkvmerge v51.0.0 ('I Wish') 64-bit
Библиотека кодирования : libebml v1.4.0 + libmatroska v1.6.2

Видео
Идентификатор : 1
Формат : AVC
Формат/Информация : Advanced Video Codec
Профиль формата : [email protected]
Настройки формата : CABAC / 3 Ref Frames
Параметр CABAC формата : Да
Параметр RefFrames формата : 3 кадра
Идентификатор кодека : V_MPEG4/ISO/AVC
Продолжительность : 25 м. 36 с.
Вид битрейта : Переменный
Битрейт : 2 554 Кбит/сек
Номинальный битрейт : 4 640 Кбит/сек
Максимальный битрейт : 6 960 Кбит/сек
Ширина : 1 920 пикселей
Высота : 1 080 пикселей
Соотношение сторон : 16:9
Режим частоты кадров : Постоянный
Частота кадров : 23,976 (24000/1001) кадра/сек
Цветовое пространство : YUV
Субдискретизация насыщенности : 4:2:0
Битовая глубина : 8 бит
Тип развёртки : Прогрессивная
Бит/(Пиксели*Кадры) : 0.051
Размер потока : 468 Мбайт (61%)
Библиотека кодирования : x264 core 148 r2727 7d026e8
Настройки программы : cabac=1 / ref=3 / deblock=1:0:0 / analyse=0x1:0x111 / me=umh / subme=10 / psy=1 / psy_rd=1.00:0.00 / mixed_ref=1 / me_range=24 / chroma_me=1 / trellis=2 / 8x8dct=0 / cqm=0 / deadzone=21,11 / fast_pskip=1 / chroma_qp_offset=-2 / threads=6 / lookahead_threads=1 / sliced_threads=0 / nr=0 / decimate=1 / interlaced=0 / bluray_compat=0 / stitchable=1 / constrained_intra=0 / bframes=2 / b_pyramid=0 / b_adapt=2 / b_bias=0 / direct=3 / weightb=1 / open_gop=0 / weightp=2 / keyint=250 / keyint_min=23 / scenecut=0 / intra_refresh=0 / rc_lookahead=48 / rc=2pass / mbtree=1 / bitrate=4640 / ratetol=1.0 / qcomp=0.50 / qpmin=6 / qpmax=51 / qpstep=4 / cplxblur=20.0 / qblur=0.5 / vbv_maxrate=6960 / vbv_bufsize=9280 / nal_hrd=vbr / filler=0 / ip_ratio=1.40 / aq=1:1.00
Язык : Japanese
Default : Да
Forced : Нет

Аудио #1
Идентификатор : 2
Формат : AC-3
Формат/Информация : Audio Coding 3
Коммерческое название : Dolby Digital
Идентификатор кодека : A_AC3
Продолжительность : 25 м. 36 с.
Вид битрейта : Постоянный
Битрейт : 384 Кбит/сек
Каналы : 2 канала
Channel layout : L R
Частота : 48,0 КГц
Частота кадров : 31,250 кадров/сек (1536 SPF)
Метод сжатия : С потерями
Размер потока : 70,3 Мбайт (9%)
Язык : Russian
Service kind : Complete Main
Default : Да
Forced : Нет

Аудио #2
Идентификатор : 3
Формат : E-AC-3
Формат/Информация : Enhanced AC-3
Коммерческое название : Dolby Digital Plus
Идентификатор кодека : A_EAC3
Продолжительность : 25 м. 36 с.
Вид битрейта : Постоянный
Битрейт : 640 Кбит/сек
Каналы : 6 каналов
Channel layout : L R C LFE Ls Rs
Частота : 48,0 КГц
Частота кадров : 31,250 кадров/сек (1536 SPF)
Метод сжатия : С потерями
Размер потока : 117 Мбайт (15%)
Язык : Japanese
Service kind : Complete Main
Default : Нет
Forced : Нет

Аудио #3
Идентификатор : 4
Формат : E-AC-3
Формат/Информация : Enhanced AC-3
Коммерческое название : Dolby Digital Plus
Идентификатор кодека : A_EAC3
Продолжительность : 25 м. 36 с.
Вид битрейта : Постоянный
Битрейт : 640 Кбит/сек
Каналы : 6 каналов
Channel layout : L R C LFE Ls Rs
Частота : 48,0 КГц
Частота кадров : 31,250 кадров/сек (1536 SPF)
Метод сжатия : С потерями
Размер потока : 117 Мбайт (15%)
Язык : English
Service kind : Complete Main
Default : Нет
Forced : Нет

Текст #1
Идентификатор : 5
Формат : UTF-8
Идентификатор кодека : S_TEXT/UTF8
Идентификатор кодека/Информация : UTF-8 Plain Text
Продолжительность : 22 м. 18 с.
Битрейт : 105 бит/сек
Count of elements : 298
Размер потока : 17,2 Кбайт (0%)
Язык : Russian
Default : Нет
Forced : Нет

Текст #2
Идентификатор : 6
Формат : UTF-8
Идентификатор кодека : S_TEXT/UTF8
Идентификатор кодека/Информация : UTF-8 Plain Text
Продолжительность : 21 м. 45 с.
Битрейт : 78 бит/сек
Count of elements : 328
Размер потока : 12,5 Кбайт (0%)
Язык : English
Default : Нет
Forced : Нет

Текст #3
Идентификатор : 7
Формат : UTF-8
Идентификатор кодека : S_TEXT/UTF8
Идентификатор кодека/Информация : UTF-8 Plain Text
Продолжительность : 21 м. 45 с.
Битрейт : 58 бит/сек
Count of elements : 256
Размер потока : 9,35 Кбайт (0%)
Язык : English
Default : Нет
Forced : Нет

Текст #4
Идентификатор : 8
Формат : UTF-8
Идентификатор кодека : S_TEXT/UTF8
Идентификатор кодека/Информация : UTF-8 Plain Text
Продолжительность : 23 м. 48 с.
Битрейт : 92 бит/сек
Count of elements : 420
Размер потока : 16,1 Кбайт (0%)
Заголовок : SDH
Язык : English
Default : Нет
Forced : Нет

Когда раздача ведётся путём добавления новых серий, при каждом добавлении создётся новый торрент. Чтобы начать докачку новой серии, пользователям необходимо сделать следующее:
(1) остановить скачивание,
(2) удалить старый торрент у себя из клиента (старые серии удалять не надо),
(3) скачать новый торрент и запустить его у себя в клиенте вместо старого, при этом указать клиенту путь в старую папку, куда и должно происходить скачивание новых серий.
Ваш клиент при этом должен произвести хеширование (проверку) старой папки (если не производит сам - помогите ему сделать это), и будет докачивать только те серии, которых у вас ещё нет. Старые серии при этом не удаляются, а продолжают раздаваться!
Eсли вы уже удалили старые серии, то предотвратить повторную закачку старых серий можно, отжав галочку в соответсвующих местах при запуске нового торрента. По возможности, желательно не удалять старые серии как можно дольше, чтобы релизёр не столько продолжал раздавать старые серии, а смог сконцентрироваться на новых.




Скачать Киберпанк: Бегущие по краю через торрент https://i1-imageban-ru.translate.goog/out/2022/09/28/9ca8e6b8842a982a2a401c86457c11f1.png Скачать, смотреть онлайн Киберпанк: Бегущие по краю бесплантно в хорошем качестве Описание: «Киберпанк: Бегущие по краю» — аниме-сериал, разработанный японской анимационной студией Trigger для платформы Netflix. Сериал ... 9.5 10 20
Торрент: Зарегистрирован [2022-10-08 19:17] · скачан: 185 раз
Статус: √ проверено
Размер: 8.2 GB
Как cкачать? Как скачать Киберпанк: Бегущие по краю через торрент | UTorrent




Последний раз редактировалось: bober100 (2022-10-08 19:17), всего редактировалось 3 раз(а)

28-11-2019 20:33  


Отключить вcю реклaмy на сайте, в т.ч. и в плеере онлайн просмотра!

30-09-2022 08:43 Киберпанк: Бегущие по краю Скачать торрент  

Если играли - смело качайте) Всё понравилось, в конце даже взгрустнул чутка( Еще плюс, история полноценна! (т.е. 2,3,4 и х.з. пойми какого сезона дальше не будет)



02-10-2022 06:57 Киберпанк: Бегущие по краю Скачать торрент  

Если думаете смотреть или нет,то определенно без сомнений да!!Это шедевр



11-10-2022 08:00 Киберпанк: Бегущие по краю Скачать торрент  

Внимание! Пустая трата времени ! мультик рассчитан на аудиторию 11-13 лет! 6/10



    Дорогой пользователь! Огромная просьба, поблагодарите релизера, оцените раздачу и оставьте свои комментарий, если Вы скачали Киберпанк: Бегущие по краю через торрент бесплатно!!
    Комментировать посты могут только пользователи прошедшие не сложную регистрацию
    Показать сообщения:    


    Киберпанк: Бегущие по краю через торрент
    Скачать бесплатно Киберпанк: Бегущие по краю
    Киберпанк: Бегущие по краю скачать торрент
    Киберпанк: Бегущие по краю смотреть онлайн
    Cкачать фильм Киберпанк: Бегущие по краю бесплатно
    Киберпанк: Бегущие по краю скачать торрент в хорошем качестве
    Киберпанк: Бегущие по краю смотреть онлайн бесплатно в хорошем качестве
    Вы не можете начинать темы
    Вы не можете отвечать на сообщения
    Вы не можете редактировать свои сообщения
    Вы не можете удалять свои сообщения
    Вы не можете голосовать в опросах
    Вы не можете прикреплять файлы к сообщениям
    Вы можете скачивать файлы
    Киберпанк: Бегущие по краю / Cyberpunk: Edgerunners / Сезон: 1 / Серии: 1-10 из 10 [2022, Аниме, мультфильм, фантастика, боевик, фэнтези, WEB-DL 1080p] MVO [LostFilm] смотреть онлайн, скачать торрент picoco.icu