Доктор Стрэндж

Лицензия

Добыча

Дубляж

Дом дракона

1 сезон

Тор

Дубляж

В эфире

Дубляж

Там, где раки поют

MVO

Властелин колец

1 сезон

GLOBAL

pack

Рекомендуем

30

Пиратка

ВАЖНО

ВАЖНО

Ghostwire

Пиратка

jed

RePack

nioh2

RePack

RDR2

RePack

NEED FOR SPEED™ PAYBACK

RePack

скачать торрент

Кинопоиск HD

Острые козырьки 6 сезон

6 сезон

FAR CRY 6

RePack

скачать торрент

Лицензия

скачать торрент

MVO

1

1 сезон

скачать торрент

1 сезон

скачать торрент

Лицензия

  

За пивом! / The Greatest Beer Run Ever (Питер Фаррелли) [2022, Комедия, военный, драма, история, WEB-DL 1080p] Дубляж [AppleTV+]

За пивом! через торрент pb.wtf

Раздают: 8 [ 3 KB/s ]
Размер: 11.27 GB | Добавлен: 2 мес. назад | Торрент скачан:305 раз
Смотреть онлайн | Скачать   

30-09-2022 03:10 За пивом! Скачать торрент  

За пивом!
The Greatest Beer Run Ever

Год выпуска: 2022
Страна: США
Студия: Living Films, Skydance Productions
Жанр: Комедия, военный, драма, история
Продолжительность: 02:06:57
Перевод: Дублированный | AppleTV+
Субтитры: Русские (Forced, full, SDH), украинские (Full), английские

Режиссер: Питер Фаррелли

rating

В ролях: Зак Эфрон, Рассел Кроу, Билл Мюррей, Кайл Аллен, Джейк Пикинг, Уилл Ропп, Арчи Рено, Джо Адлер

Описание: 1967 год. Чтобы морально поддержать воюющих во Вьетнаме друзей, Чики Донохью решает самолично угостить их американским пивом. Поездка, начавшаяся как спонтанная авантюра, в корне меняет его взгляды на жизнь и войну.

Качество: WEB-DL 1080p
Формат: MKV

Видео: MPEG-4 AVC, 1920x960, 9958 Кbit/s, 23.976 fps
Аудио #01: 48 kHz, AC3, 5.1, 448 Kbps | Дублированный | AppleTV+ | RUS |
Аудио #02: 48 kHz, E-AC3+Atmos, 5.1, 768 Kbps | Дублированный | AppleTV+ | RUS |
Аудио #03: 48 kHz, E-AC3+Atmos, 5.1, 768 Kbps | Дублированный (ТК) | AppleTV+ | RUS |
Аудио #04: 48 kHz, E-AC3+Atmos, 5.1, 768 Kbps | Оригинал | ENG |
скриншот  скриншот  скриншот  скриншот  скриншот  

General
Unique ID : 109094207737587197376635807629993803613 (0x5212C7B7861CA11ED04184EBBA437F5D)
Complete name : E:Video1The.Greatest.Beer.Run.Ever.2022.WEB-DL.1080p.seleZen.mkv
Format : Matroska
Format version : Version 4
File size : 11.3 GiB
Duration : 2 h 6 min
Overall bit rate : 12.7 Mb/s
Movie name : The Greatest Beer Run Ever 2022 from seleZen
Encoded date : UTC 2022-09-30 01:24:57
Writing application : mkvmerge v59.0.0 ('Shining Star') 64-bit
Writing library : libebml v1.4.2 + libmatroska v1.6.4

Video
ID : 1
Format : AVC
Format/Info : Advanced Video Codec
Format profile : [email protected]
Format settings : CABAC / 4 Ref Frames
Format settings, CABAC : Yes
Format settings, Reference : 4 frames
Codec ID : V_MPEG4/ISO/AVC
Duration : 2 h 6 min
Bit rate : 9 958 kb/s
Width : 1 920 pixels
Height : 960 pixels
Display aspect ratio : 2.000
Frame rate mode : Constant
Frame rate : 23.976 (24000/1001) FPS
Color space : YUV
Chroma subsampling : 4:2:0
Bit depth : 8 bits
Scan type : Progressive
Bits/(Pixel*Frame) : 0.225
Stream size : 8.83 GiB (78%)
Language : English
Default : Yes
Forced : No
Color range : Limited
Color primaries : BT.709
Transfer characteristics : BT.709
Matrix coefficients : BT.709

Audio #1
ID : 2
Format : AC-3
Format/Info : Audio Coding 3
Commercial name : Dolby Digital
Codec ID : A_AC3
Duration : 2 h 6 min
Bit rate mode : Constant
Bit rate : 448 kb/s
Channel(s) : 6 channels
Channel layout : L R C LFE Ls Rs
Sampling rate : 48.0 kHz
Frame rate : 31.250 FPS (1536 SPF)
Compression mode : Lossy
Stream size : 407 MiB (4%)
Title : Дубляж
Language : Russian
Service kind : Complete Main
Default : Yes
Forced : Yes

Audio #2
ID : 3
Format : E-AC-3 JOC
Format/Info : Enhanced AC-3 with Joint Object Coding
Commercial name : Dolby Digital Plus with Dolby Atmos
Codec ID : A_EAC3
Duration : 2 h 6 min
Bit rate mode : Constant
Bit rate : 768 kb/s
Channel(s) : 6 channels
Channel layout : L R C LFE Ls Rs
Sampling rate : 48.0 kHz
Frame rate : 31.250 FPS (1536 SPF)
Compression mode : Lossy
Stream size : 697 MiB (6%)
Title : Дубляж
Language : Russian
Service kind : Complete Main
Default : No
Forced : No
Complexity index : 16
Number of dynamic objects : 15
Bed channel count : 1 channel
Bed channel configuration : LFE

Audio #3
ID : 4
Format : E-AC-3 JOC
Format/Info : Enhanced AC-3 with Joint Object Coding
Commercial name : Dolby Digital Plus with Dolby Atmos
Codec ID : A_EAC3
Duration : 2 h 6 min
Bit rate mode : Constant
Bit rate : 768 kb/s
Channel(s) : 6 channels
Channel layout : L R C LFE Ls Rs
Sampling rate : 48.0 kHz
Frame rate : 31.250 FPS (1536 SPF)
Compression mode : Lossy
Stream size : 697 MiB (6%)
Title : Дубляж {TK}
Language : Russian
Service kind : Complete Main
Default : No
Forced : No
Complexity index : 16
Number of dynamic objects : 15
Bed channel count : 1 channel
Bed channel configuration : LFE

Audio #4
ID : 5
Format : E-AC-3 JOC
Format/Info : Enhanced AC-3 with Joint Object Coding
Commercial name : Dolby Digital Plus with Dolby Atmos
Codec ID : A_EAC3
Duration : 2 h 6 min
Bit rate mode : Constant
Bit rate : 768 kb/s
Channel(s) : 6 channels
Channel layout : L R C LFE Ls Rs
Sampling rate : 48.0 kHz
Frame rate : 31.250 FPS (1536 SPF)
Compression mode : Lossy
Stream size : 697 MiB (6%)
Title : Original
Language : English
Service kind : Complete Main
Default : No
Forced : No
Complexity index : 16
Number of dynamic objects : 15
Bed channel count : 1 channel
Bed channel configuration : LFE

Text #1
ID : 6
Format : UTF-8
Codec ID : S_TEXT/UTF8
Codec ID/Info : UTF-8 Plain Text
Duration : 2 h 6 min
Bit rate : 4 b/s
Frame rate : 0.010 FPS
Count of elements : 75
Stream size : 4.04 KiB (0%)
Title : Forced
Language : Russian
Default : Yes
Forced : Yes

Text #2
ID : 7
Format : UTF-8
Codec ID : S_TEXT/UTF8
Codec ID/Info : UTF-8 Plain Text
Duration : 2 h 6 min
Bit rate : 99 b/s
Frame rate : 0.213 FPS
Count of elements : 1615
Stream size : 92.0 KiB (0%)
Title : Full v.1
Language : Russian
Default : No
Forced : No

Text #3
ID : 8
Format : UTF-8
Codec ID : S_TEXT/UTF8
Codec ID/Info : UTF-8 Plain Text
Duration : 2 h 6 min
Bit rate : 110 b/s
Frame rate : 0.238 FPS
Count of elements : 1801
Stream size : 102 KiB (0%)
Title : Full v.2
Language : Russian
Default : No
Forced : No

Text #4
ID : 9
Format : UTF-8
Codec ID : S_TEXT/UTF8
Codec ID/Info : UTF-8 Plain Text
Duration : 2 h 6 min
Bit rate : 91 b/s
Frame rate : 0.212 FPS
Count of elements : 1609
Stream size : 84.3 KiB (0%)
Title : Full
Language : Ukrainian
Default : No
Forced : No

Text #5
ID : 10
Format : UTF-8
Codec ID : S_TEXT/UTF8
Codec ID/Info : UTF-8 Plain Text
Duration : 1 h 57 min
Bit rate : 66 b/s
Frame rate : 0.222 FPS
Count of elements : 1566
Stream size : 57.3 KiB (0%)
Title : Full
Language : English
Default : No
Forced : No

Text #6
ID : 11
Format : UTF-8
Codec ID : S_TEXT/UTF8
Codec ID/Info : UTF-8 Plain Text
Duration : 1 h 57 min
Bit rate : 73 b/s
Frame rate : 0.248 FPS
Count of elements : 1751
Stream size : 63.8 KiB (0%)
Title : SDH
Language : English
Default : No
Forced : No




Скачать За пивом! через торрент https://i120.fastpic.org/big/2022/0930/01/25282a15e64ccca5438acecb987fae01.jpg Скачать, смотреть онлайн За пивом! бесплантно в хорошем качестве Описание: 1967 год. Чтобы морально поддержать воюющих во Вьетнаме друзей, Чики Донохью решает самолично угостить их американским пивом. ... 9.4 10 9
Info! Золотая раздача, скачанное не засчитывается.
Торрент: Зарегистрирован [2022-09-30 03:10] · скачан: 305 раз
Статус: √ проверено
Размер: 11.27 GB
Как cкачать? Как скачать За пивом! через торрент | UTorrent

% Раздел Тема Автор DL S | L
Фильмы 2022 [DVDrip, WEB-DLRip, HDrip] (DUB, MVO) [ 2.12 GB ] За пивом! / The Greatest Beer Run Ever | DUB | DLRip-AVC bober100 Скачать
16 | 0
Ultra HD (UHD: 2K, 4K, 8K) [ 23.61 GB ] За пивом! / The Greatest Beer Run Ever | DUB | 2160p bober100 Скачать
2 | 0
Ultra HD (UHD: 2K, 4K, 8K) [ 20.76 GB ] За пивом! / The Greatest Beer Run Ever | DUB | 2160p, (SDR bober100 Скачать
1 | 0
Фильмы (WEB-DL 720p, 1080p) [ 4.95 GB ] За пивом! / The Greatest Beer Run Ever | DUB | 720p bober100 Скачать
7 | 0

28-11-2019 20:33  


Отключить вcю реклaмy на сайте, в т.ч. и в плеере онлайн просмотра!

03-10-2022 17:05 За пивом! Скачать торрент  

"Президент врет, что идет война!"
"Сколько еще умрет, прежде чем до вас дойдет?"
Где-то всё это мы недавно уже слышали....



    Дорогой пользователь! Огромная просьба, поблагодарите релизера, оцените раздачу и оставьте свои комментарий, если Вы скачали За пивом! через торрент бесплатно!!
    Комментировать посты могут только пользователи прошедшие не сложную регистрацию
    Показать сообщения:    


    За пивом! через торрент
    Скачать бесплатно За пивом!
    За пивом! скачать торрент
    За пивом! смотреть онлайн
    Cкачать фильм За пивом! бесплатно
    За пивом! скачать торрент в хорошем качестве
    За пивом! смотреть онлайн бесплатно в хорошем качестве
    Вы не можете начинать темы
    Вы не можете отвечать на сообщения
    Вы не можете редактировать свои сообщения
    Вы не можете удалять свои сообщения
    Вы не можете голосовать в опросах
    Вы не можете прикреплять файлы к сообщениям
    Вы можете скачивать файлы
    За пивом! / The Greatest Beer Run Ever [2022, Комедия, военный, драма, история, WEB-DL 1080p] Дубляж [AppleTV picoco.icu