Доктор Стрэндж

Лицензия

Добыча

Дубляж

Дом дракона

1 сезон

Тор

Дубляж

В эфире

Дубляж

Там, где раки поют

MVO

Властелин колец

1 сезон

GLOBAL

pack

Рекомендуем

30

Пиратка

ВАЖНО

ВАЖНО

Ghostwire

Пиратка

jed

RePack

nioh2

RePack

RDR2

RePack

NEED FOR SPEED™ PAYBACK

RePack

скачать торрент

Кинопоиск HD

Острые козырьки 6 сезон

6 сезон

FAR CRY 6

RePack

скачать торрент

Лицензия

скачать торрент

MVO

1

1 сезон

скачать торрент

1 сезон

скачать торрент

Лицензия

  

Месть Банши / Code Name Banshee (Джон Кейес) [2022, Боевик, триллер, BDRip 720p] Дубляж [Велес]

Месть Банши через торрент pb.wtf

Раздают: 2 [ 0 KB/s ]
Размер: 4.64 GB | Добавлен: 2 мес. назад | Торрент скачан:93 раза
Смотреть онлайн | Скачать   

30-09-2022 03:32 Месть Банши Скачать торрент  

Месть Банши
Code Name Banshee

Год выпуска: 2022
Страна: США
Выпущено: Yale Productions, Banshee Productions, Bee-Hive Productions
Жанр: Боевик, триллер
Продолжительность: 01:32:52
Перевод: Дублированный | Велес
Субтитры: Английские

Режиссер: Джон Кейес

rating

В ролях: Антонио Бандерас, Джейми Кинг, Томми Флэнаган, Ким ДеЛонги, Катрин Дэвис, Кейл Окли Зеперник, Александр Вайшельбойм, Джон Вольман, Левон Панек, Дилан Флэшнер

Описание: Калеб — бывший правительственный киллер, залегший на дно. От своей протеже Банши, такой же смертоносной убийцы, как он сам, Калеб узнает, что за его голову назначена награда. Герой вынужден вновь взяться за старое.

Качество: BDRip 720p
Формат: MKV

Видео: MPEG-4 AVC, 1280x538, 6134 Кbit/s, 23.976 fps
Аудио #01: 48 kHz, AC3, 5.1, 384 Kbps | Дублированный | Велес | RUS |
Аудио #02: 48 kHz, AC3, 5.1, 640 Kbps | Оригинал | ENG |
скриншот  скриншот  скриншот  скриншот  скриншот  

General
Unique ID : 303232526639695434351293382230397602096 (0xE42075D751B18D520CF074D2269EC930)
Complete name : E:Video1Code.Name.Banshee.2022.BDRip.720p.seleZen.mkv
Format : Matroska
Format version : Version 4
File size : 4.64 GiB
Duration : 1 h 32 min
Overall bit rate : 7 160 kb/s
Movie name : Code Name Banshee 2022 from seleZen
Encoded date : UTC 2022-09-29 22:13:05
Writing application : mkvmerge v59.0.0 ('Shining Star') 64-bit
Writing library : libebml v1.4.2 + libmatroska v1.6.4

Video
ID : 1
Format : AVC
Format/Info : Advanced Video Codec
Format profile : [email protected]
Format settings : CABAC / 12 Ref Frames
Format settings, CABAC : Yes
Format settings, Reference : 12 frames
Codec ID : V_MPEG4/ISO/AVC
Duration : 1 h 32 min
Bit rate : 6 134 kb/s
Width : 1 280 pixels
Height : 538 pixels
Display aspect ratio : 2.40:1
Frame rate mode : Constant
Frame rate : 23.976 (24000/1001) FPS
Color space : YUV
Chroma subsampling : 4:2:0
Bit depth : 8 bits
Scan type : Progressive
Bits/(Pixel*Frame) : 0.371
Stream size : 3.98 GiB (86%)
Title : MTeam
Writing library : x264 core 157 r2938 2b00a84 [email protected] Mod
Encoding settings : cabac=1 / ref=12 / deblock=1:-3:-3 / analyse=0x3:0x133 / me=umh / subme=10 / psy=1 / psy_rd=1.05:0.00 / mixed_ref=1 / me_range=32 / chroma_me=1 / trellis=2 / 8x8dct=1 / cqm=0 / deadzone=21, 11 / fast_pskip=0 / chroma_qp_offset=-2 / threads=12 / lookahead_threads=2 / sliced_threads=0 / nr=0 / decimate=0 / interlaced=0 / bluray_compat=0 / constrained_intra=0 / bframes=8 / b_pyramid=2 / b_adapt=2 / b_bias=0 / direct=3 / weightb=1 / open_gop=0 / weightp=2 / keyint=250 / keyint_min=24 / scenecut=40 / intra_refresh=0 / rc_lookahead=250 / rc=crf / mbtree=0 / crf=16.8 / qcomp=0.60 / qpmin=0 / qpmax=69 / qpstep=4 / vbv_maxrate=62500 / vbv_bufsize=78125 / crf_max=0.0 / nal_hrd=none / filler=0 / ip_ratio=1.30 / pb_ratio=1.20 / aq=3:0.80
Language : English
Default : Yes
Forced : No
Color range : Limited
Color primaries : BT.709
Matrix coefficients : BT.709

Audio #1
ID : 2
Format : AC-3
Format/Info : Audio Coding 3
Commercial name : Dolby Digital
Codec ID : A_AC3
Duration : 1 h 32 min
Bit rate mode : Constant
Bit rate : 384 kb/s
Channel(s) : 6 channels
Channel layout : L R C LFE Ls Rs
Sampling rate : 48.0 kHz
Frame rate : 31.250 FPS (1536 SPF)
Compression mode : Lossy
Stream size : 255 MiB (5%)
Title : Дубляж
Language : Russian
Service kind : Complete Main
Default : Yes
Forced : Yes

Audio #2
ID : 3
Format : AC-3
Format/Info : Audio Coding 3
Commercial name : Dolby Digital
Codec ID : A_AC3
Duration : 1 h 32 min
Bit rate mode : Constant
Bit rate : 640 kb/s
Channel(s) : 6 channels
Channel layout : L R C LFE Ls Rs
Sampling rate : 48.0 kHz
Frame rate : 31.250 FPS (1536 SPF)
Compression mode : Lossy
Stream size : 425 MiB (9%)
Title : Original
Language : English
Service kind : Complete Main
Default : No
Forced : No

Text #1
ID : 4
Format : UTF-8
Codec ID : S_TEXT/UTF8
Codec ID/Info : UTF-8 Plain Text
Duration : 1 h 31 min
Bit rate : 39 b/s
Frame rate : 0.172 FPS
Count of elements : 946
Stream size : 26.5 KiB (0%)
Title : Full
Language : English
Default : No
Forced : No

Text #2
ID : 5
Format : UTF-8
Codec ID : S_TEXT/UTF8
Codec ID/Info : UTF-8 Plain Text
Duration : 1 h 32 min
Bit rate : 44 b/s
Frame rate : 0.203 FPS
Count of elements : 1125
Stream size : 29.9 KiB (0%)
Title : SDH
Language : English
Default : No
Forced : No

Menu
00:00:00.000 : Chapter 01
00:07:00.461 : Chapter 02
00:13:57.086 : Chapter 03
00:21:07.975 : Chapter 04
00:26:55.238 : Chapter 05
00:32:15.642 : Chapter 06
00:44:08.270 : Chapter 07
00:52:38.155 : Chapter 08
01:01:03.201 : Chapter 09
01:10:09.872 : Chapter 10
01:21:27.048 : Chapter 11
01:28:20.545 : Chapter 12




Скачать Месть Банши через торрент https://i120.fastpic.org/big/2022/0930/9b/7f4ba4432168847d065ed36bd163ee9b.jpg Скачать, смотреть онлайн Месть Банши бесплантно в хорошем качестве Описание: Калеб — бывший правительственный киллер, залегший на дно. От своей протеже Банши, такой же смертоносной убийцы, как он сам, Калеб ... 10 10 3
Торрент: Зарегистрирован [2022-09-30 03:32] · скачан: 93 раз
Статус: √ проверено
Размер: 4.64 GB
Как cкачать? Как скачать Месть Банши через торрент | UTorrent

% Раздел Тема Автор DL S | L
Фильмы 2022 [DVDrip, WEB-DLRip, HDrip] (DUB, MVO) [ 1.97 GB ] Месть Банши / Code Name Banshee | Велес | BDRip-AVC bober100 Скачать
7 | 0
Фильмы 2022 [DVDrip, WEB-DLRip, HDrip] (DUB, MVO) [ 1.46 GB ] Месть Банши / Code Name Banshee | Велес | BDRip bober100 Скачать
5 | 0
Фильмы 2022 [DVDrip, WEB-DLRip, HDrip] (DUB, MVO) [ 746 MB ] Месть Банши / Code Name Banshee | Велес | BDRip bober100 Скачать
2 | 0
Фильмы (Blu-ray, BD-Remux, HDDVD) [ 19.63 GB ] Месть Банши / Code Name Banshee | Велес | BD Remux 1080p bober100 Скачать
2 | 0
Фильмы [HD 720p, 1080p] (Хороший звук DUB, MVO) [ 12.04 GB ] Месть Банши / Code Name Banshee | Велес | 1080p bober100 Скачать
1 | 0

28-11-2019 20:33  


Отключить вcю реклaмy на сайте, в т.ч. и в плеере онлайн просмотра!

    Дорогой пользователь! Огромная просьба, поблагодарите релизера, оцените раздачу и оставьте свои комментарий, если Вы скачали Месть Банши через торрент бесплатно!!
    Комментировать посты могут только пользователи прошедшие не сложную регистрацию
    Показать сообщения:    


    Месть Банши через торрент
    Скачать бесплатно Месть Банши
    Месть Банши скачать торрент
    Месть Банши смотреть онлайн
    Cкачать фильм Месть Банши бесплатно
    Месть Банши скачать торрент в хорошем качестве
    Месть Банши смотреть онлайн бесплатно в хорошем качестве
    Вы не можете начинать темы
    Вы не можете отвечать на сообщения
    Вы не можете редактировать свои сообщения
    Вы не можете удалять свои сообщения
    Вы не можете голосовать в опросах
    Вы не можете прикреплять файлы к сообщениям
    Вы можете скачивать файлы
    Месть Банши / Code Name Banshee [2022, Боевик, триллер, BDRip 720p] Дубляж [Велес] смотреть онлайн, скачать торрент picoco.icu