Доктор Стрэндж

Лицензия

Добыча

Дубляж

Дом дракона

1 сезон

Тор

Дубляж

В эфире

Дубляж

Там, где раки поют

MVO

Властелин колец

1 сезон

GLOBAL

pack

Рекомендуем

30

Пиратка

ВАЖНО

ВАЖНО

Ghostwire

Пиратка

jed

RePack

nioh2

RePack

RDR2

RePack

NEED FOR SPEED™ PAYBACK

RePack

скачать торрент

Кинопоиск HD

Острые козырьки 6 сезон

6 сезон

FAR CRY 6

RePack

скачать торрент

Лицензия

скачать торрент

MVO

1

1 сезон

скачать торрент

1 сезон

скачать торрент

Лицензия

  

Бандит / Bandit (Аллан Ангар) [2022 г., Триллер, Драма, Криминал, WEB-DLRip 720p / 60 FPS] MVO [Jaskier] от R.G. HD-Films

Бандит через торрент pb.wtf

Раздают: 10 [ 0 KB/s ] Качают: 1 [ 0 KB/s ]
Размер: 4.43 GB | Добавлен: 1 мес. 29 д. назад | Торрент скачан:261 раз
Смотреть онлайн | Скачать   

30-09-2022 11:38 Бандит Скачать торрент  

Бандит / Bandit
Год выпуска: 2022
Страна: Канада
Жанр: Триллер, Драма, Криминал
Продолжительность: 02:05:41
Перевод: Профессиональный (многоголосый, закадровый) | Jaskier | Uncensored
Субтитры: английские

Режиссер: Аллан Ангар

rating

В ролях: Мэл Гибсон, Элиша Катберт, Оливия д’Або, Джош Дюамель, Нестор Карбонелл, Рэйчел Маркариан, Хейли Уэбб, Майкл Х. Коул, Клер Бронсон, Свен Теммел, Лесли Стрэттон, Кэмерон Худ, Dayna Beilenson, Клэйтон Ланди, Селеста Фианна

Описание: Гилберту Галвану-младшему удается сбежать из американской тюрьмы и перебраться в Канаду. Влюбившись в соцработницу Андреа, он решает начать грабить банки, чтобы она ни в чем не нуждалась. Вести двойную жизнь оказывается непросто, но сначала у опытного грабителя мастерски получается заметать следы.


Качество: WEB-DLRip 720p / 60 FPS
Формат: MKV
Видео кодек: H.264
Аудио кодек: AC3
Видео: x264, 1280 x 536 ( 2,40:1 ), 4657 kbps, 60,000 fps, ( 0.113 bpp)
Аудио#1: Русский, AC-3, 48.0 KHz, 6 ch, 384 Kbps MVO | Jaskier | Uncensored
Релиз от: Автор рипа: slaventi-69
x264 [info]: using cpu capabilities: MMX2 SSE2Fast SSSE3 SSE4.2 AVX AVX2 FMA3 LZCNT BMI1 BMI2
x264 [info]: profile High, level 4.1
x264 [info]: frame I:2240 Avg QP:15.35 size: 79528
x264 [info]: frame P:106915 Avg QP:16.42 size: 23708
x264 [info]: frame B:343331 Avg QP:19.00 size: 4885
x264 [info]: consecutive B-frames: 1.9% 4.5% 10.1% 16.4% 40.3% 26.8%


Общее
Уникальный идентификатор : 216526405606253089201419480223999140220 (0xA2E578054AF5C188C562E68BEDE9217C)
Полное имя : G:\60 FPS\Bandit.(2022).WEB-DLRip.720p.(60 Fps).mkv
Формат : Matroska
Версия формата : Version 4
Размер файла : 4,43 Гбайт
Продолжительность : 2 ч. 5 м.
Общий поток : 5045 Кбит/сек
Название фильма : Бандит / Bandit (2022) WEB-DLRip 720p (60 Fps)
Дата кодирования : UTC 2022-09-30 10:11:05
Программа кодирования : mkvmerge v69.0.0 ('Day And Age') 64-bit
Библиотека кодирования : libebml v1.4.2 + libmatroska v1.6.4

Видео
Идентификатор : 1
Формат : AVC
Формат/Информация : Advanced Video Codec
Профиль формата : [email protected]
Настройки формата : CABAC / 9 Ref Frames
Параметр CABAC формата : Да
Параметр RefFrames формата : 9 кадров
Идентификатор кодека : V_MPEG4/ISO/AVC
Продолжительность : 2 ч. 5 м.
Битрейт : 4657 Кбит/сек
Ширина : 1280 пикселей
Высота : 536 пикселей
Соотношение сторон : 2,40:1
Режим частоты кадров : Постоянный
Частота кадров : 60,000 кадров/сек
Цветовое пространство : YUV
Субдискретизация насыщенности : 4:2:0
Битовая глубина : 8 бит
Тип развёртки : Прогрессивная
Бит/(Пиксели*Кадры) : 0.113
Размер потока : 4,09 Гбайт (92%)
Заголовок : slaventi-69 ( R.G. HD-Films | 60 fps )
Библиотека кодирования : x264 core 130 r2273 b3065e6
Настройки программы : cabac=1 / ref=9 / deblock=1:-3:-3 / analyse=0x3:0x133 / me=umh / subme=9 / psy=1 / psy_rd=1.00:0.00 / mixed_ref=1 / me_range=32 / chroma_me=1 / trellis=2 / 8x8dct=1 / cqm=0 / deadzone=21,11 / fast_pskip=0 / chroma_qp_offset=-2 / threads=8 / lookahead_threads=4 / sliced_threads=0 / nr=0 / decimate=1 / interlaced=0 / bluray_compat=0 / constrained_intra=0 / bframes=5 / b_pyramid=2 / b_adapt=2 / b_bias=0 / direct=1 / weightb=1 / open_gop=0 / weightp=2 / keyint=600 / keyint_min=23 / scenecut=40 / intra_refresh=0 / rc=crf / mbtree=0 / crf=16.8 / qcomp=0.60 / qpmin=0 / qpmax=69 / qpstep=4 / ip_ratio=1.40 / pb_ratio=1.30 / aq=1:1.00
Язык : English
Default : Да
Forced : Нет

Аудио
Идентификатор : 2
Формат : AC-3
Формат/Информация : Audio Coding 3
Коммерческое название : Dolby Digital
Идентификатор кодека : A_AC3
Продолжительность : 2 ч. 5 м.
Вид битрейта : Постоянный
Битрейт : 384 Кбит/сек
Каналы : 6 каналов
Channel layout : L R C LFE Ls Rs
Частота : 48,0 КГц
Частота кадров : 31,250 кадров/сек (1536 SPF)
Битовая глубина : 16 бит
Метод сжатия : С потерями
Размер потока : 345 Мбайт (8%)
Заголовок : MVO (Jaskier)| Uncensored
Язык : Russian
ServiceKind/String : Complete Main
Default : Да
Forced : Нет

Текст #1
Идентификатор : 3
Формат : UTF-8
Идентификатор кодека : S_TEXT/UTF8
Идентификатор кодека/Информация : UTF-8 Plain Text
Продолжительность : 1 ч. 58 м.
Битрейт : 75 бит/сек
ElementCount : 2480
Размер потока : 65,6 Кбайт (0%)
Заголовок : SDH
Язык : English
Default : Нет
Forced : Нет

Текст #2
Идентификатор : 4
Формат : UTF-8
Идентификатор кодека : S_TEXT/UTF8
Идентификатор кодека/Информация : UTF-8 Plain Text
Продолжительность : 1 ч. 57 м.
Битрейт : 69 бит/сек
ElementCount : 2186
Размер потока : 59,3 Кбайт (0%)
Язык : English
Default : Нет
Forced : Нет

Меню
00:00:00.000 : en:Chapter 01
00:08:31.469 : en:Chapter 02
00:23:11.016 : en:Chapter 03
00:38:34.439 : en:Chapter 04
00:47:31.017 : en:Chapter 05
00:59:50.757 : en:Chapter 06
01:09:32.339 : en:Chapter 07
01:19:08.123 : en:Chapter 08
01:30:04.237 : en:Chapter 09
01:39:37.727 : en:Chapter 10
01:49:05.086 : en:Chapter 11
01:58:21.101 : en:Chapter 12

Просьба к переливающим на другие сайты, в оформлении указывайте пожалуйста авторство группы R.G. HD-Films



Скачать Бандит через торрент https://i120.fastpic.org/big/2022/0930/e8/9b2d56df91cff612038bd090c52ebee8.jpg Скачать, смотреть онлайн Бандит бесплантно в хорошем качестве Описание: Гилберту Галвану-младшему удается сбежать из американской тюрьмы и перебраться в Канаду. Влюбившись в соцработницу Андреа, он ... 8.9 10 8
Торрент: Зарегистрирован [2022-09-30 11:38] · скачан: 261 раз
Статус: √ проверено
Размер: 4.43 GB
Как cкачать? Как скачать Бандит через торрент | UTorrent

% Раздел Тема Автор DL S | L
Фильмы 2022 [DVDrip, WEB-DLRip, HDrip] (DUB, MVO) [ 2.11 GB ] Бандит / Bandit | DUB | DLRip-AVC bober100 Скачать
25 | 1
Фильмы 2022 [DVDrip, WEB-DLRip, HDrip] (DUB, MVO) [ 2.18 GB ] Бандит / Bandit | DUB | DLRip bober100 Скачать
13 | 2
Фильмы (WEB-DL 720p, 1080p) [ 9.49 GB ] Бандит / Bandit | Jaskier | 1080p bober100 Скачать
10 | 0

28-11-2019 20:33  


Отключить вcю реклaмy на сайте, в т.ч. и в плеере онлайн просмотра!

04-10-2022 13:26 Бандит Скачать торрент  

спасибо



    Дорогой пользователь! Огромная просьба, поблагодарите релизера, оцените раздачу и оставьте свои комментарий, если Вы скачали Бандит через торрент бесплатно!!
    Комментировать посты могут только пользователи прошедшие не сложную регистрацию
    Показать сообщения:    


    Бандит через торрент
    Скачать бесплатно Бандит
    Бандит скачать торрент
    Бандит смотреть онлайн
    Cкачать фильм Бандит бесплатно
    Бандит скачать торрент в хорошем качестве
    Бандит смотреть онлайн бесплатно в хорошем качестве
    Вы не можете начинать темы
    Вы не можете отвечать на сообщения
    Вы не можете редактировать свои сообщения
    Вы не можете удалять свои сообщения
    Вы не можете голосовать в опросах
    Вы не можете прикреплять файлы к сообщениям
    Вы можете скачивать файлы
    Бандит / Bandit [2022 г., Триллер, Драма, Криминал, WEB-DLRip 720p / 60 FPS] MVO [Jaskier] от R.G. HD-Films смотреть онлайн, скачать торрент picoco.icu