Доктор Стрэндж

Лицензия

Добыча

Дубляж

Дом дракона

1 сезон

Тор

Дубляж

В эфире

Дубляж

Там, где раки поют

MVO

Властелин колец

1 сезон

GLOBAL

pack

Рекомендуем

30

Пиратка

ВАЖНО

ВАЖНО

Ghostwire

Пиратка

jed

RePack

nioh2

RePack

RDR2

RePack

NEED FOR SPEED™ PAYBACK

RePack

скачать торрент

Кинопоиск HD

Острые козырьки 6 сезон

6 сезон

FAR CRY 6

RePack

скачать торрент

Лицензия

скачать торрент

MVO

1

1 сезон

скачать торрент

1 сезон

скачать торрент

Лицензия

  

Плечом к плечу / Under the Stadium Lights (Тодд Рэндолл) [2021, Боевик, драма, спорт, BDRip 1080p] Дубляж [Zone Vision]

Плечом к плечу через торрент pb.wtf

Размер: 9.14 GB | Добавлен: 1 мес. 29 д. назад | Торрент скачан:22 раза
Смотреть онлайн | Скачать   

30-09-2022 18:23 Плечом к плечу Скачать торрент  

Плечом к плечу
Under the Stadium Lights

Год выпуска: 2021
Страна: США
Выпущено: Winter State Entertainment
Жанр: Боевик, драма, спорт
Продолжительность: 01:49:04
Перевод: Дублированный | Zone Vision
Субтитры: Aнглийские

Режиссер: Тодд Рэндолл

rating

В ролях: Лоуренс Фишборн, Эбигейл Хоук, Ноэль Гульеми, Гленн Моршауэр, Майло Гибсон, Адриан Фавела, Акорье Уайт, Эдди Джордж, Джош Ричардс, Картер Редвуд

Описание: Любой футбольный коллектив на определенном этапе своей карьеры оказывается в поворотной точке. Если приложить максимум труда, есть шансы перейти в более выгодный дивизион, позволяющий превознести свой спортивный талант до небывалых высот. Неприметная команда «Абилин Иглз» осознает, что нужно максимально консолидировать общие усилия. В этом деле поможет не только опытный наставник, но и капеллан.

Качество: BDRip 1080p
Формат: MKV

Видео: MPEG-4 AVC, 11.0 Mb/s, 1920x1038, 23.976 fps
Аудио #01: 48 kHz, AC3, 5.1, 384 Kbps | Дублированный | Zone Vision | RUS |
Аудио #02: 48 kHz, AC3, 5.1, 640 Kbps | Оригинал | ENG |
скриншот  скриншот  скриншот  скриншот  

Complete name: Plechom.k.plechu.2021.BDRip.1080p.ELEKTRI4KA.UNIONGANG.mkv
Format: Matroska
Format version: Version 4
File size: 9.14 GiB
Duration: 1 h 49 min
Overall bit rate: 12.0 Mb/s
Movie name: Plechom.k.plechu.2021.BDRip.1080p.ELEKTRI4KA.UNIONGANG.
Encoded date: UTC 2022-09-30 16:35:46
Writing application: mkvmerge v8.3.0 ('Over the Horizon') 32bit
Writing library: libebml v1.3.1 + libmatroska v1.4.2

Video
ID: 1
Format: AVC
Format/Info: Advanced Video Codec
Format profile: [email protected]
Format settings: CABAC / 4 Ref Frames
Format settings, CABAC: Yes
Format settings, Reference frames: 4 frames
Codec ID: V_MPEG4/ISO/AVC
Duration: 1 h 49 min
Bit rate: 11.0 Mb/s
Width: 1 920 pixels
Height: 1 038 pixels
Display aspect ratio: 1.85:1
Frame rate mode: Constant
Frame rate: 23.976 (24000/1001) FPS
Color space: YUV
Chroma subsampling: 4:2:0
Bit depth: 8 bits
Scan type: Progressive
Bits/(Pixel*Frame): 0.230
Stream size: 8.36 GiB (91%)
Writing library: x264 core 157 r2958 57baac4
Encoding settings: cabac=1 / ref=4 / deblock=1:-3:-3 / analyse=0x3:0x113 / me=umh / subme=10 / psy=1 / psy_rd=1.00:0.00 / mixed_ref=1 / me_range=32 / chroma_me=1 / trellis=2 / 8x8dct=1 / cqm=0 / deadzone=21, 11 / fast_pskip=0 / chroma_qp_offset=-2 / threads=32 / lookahead_threads=5 / sliced_threads=0 / nr=1 / decimate=0 / interlaced=0 / bluray_compat=0 / constrained_intra=0 / bframes=8 / b_pyramid=2 / b_adapt=2 / b_bias=0 / direct=3 / weightb=1 / open_gop=0 / weightp=2 / keyint=240 / keyint_min=24 / scenecut=40 / intra_refresh=0 / rc=2pass / mbtree=0 / bitrate=10972 / ratetol=1.0 / qcomp=0.60 / qpmin=0 / qpmax=69 / qpstep=4 / cplxblur=20.0 / qblur=0.5 / ip_ratio=1.40 / pb_ratio=1.30 / aq=1:1.00
Default: Yes
Forced: No
Color range: Limited
Color primaries: BT.709
Transfer characteristics: BT.709
Matrix coefficients: BT.709

Audio #1
ID: 2
Format: AC-3
Format/Info: Audio Coding 3
Commercial name: Dolby Digital
Codec ID: A_AC3
Duration: 1 h 49 min
Bit rate mode: Constant
Bit rate: 384 kb/s
Channel(s): 6 channels
Channel layout: L R C LFE Ls Rs
Sampling rate: 48.0 kHz
Frame rate: 31.250 FPS (1536 SPF)
Compression mode: Lossy
Stream size: 300 MiB (3%)
Title: Дубляж (Zone Vision)
Language: Russian
Service kind: Complete Main
Default: Yes
Forced: Yes

Audio #2
ID: 3
Format: AC-3
Format/Info: Audio Coding 3
Commercial name: Dolby Digital
Codec ID: A_AC3
Duration: 1 h 49 min
Bit rate mode: Constant
Bit rate: 640 kb/s
Channel(s): 6 channels
Channel layout: L R C LFE Ls Rs
Sampling rate: 48.0 kHz
Frame rate: 31.250 FPS (1536 SPF)
Compression mode: Lossy
Stream size: 499 MiB (5%)
Title: Original
Language: English
Service kind: Complete Main
Default: No
Forced: No

Text
ID: 4
Format: PGS
Muxing mode: zlib
Codec ID: S_HDMV/PGS
Codec ID/Info: Picture based subtitle format used on BDs/HD-DVDs
Duration: 1 h 39 min
Bit rate: 947 b/s
Count of elements: 172
Stream size: 689 KiB (0%)
Language: English
Default: No
Forced: No

Menu
00:00:00.000: :Chapter 01
00:06:18.795: :Chapter 02
00:24:20.083: :Chapter 03
00:35:42.348: :Chapter 04
00:50:25.188: :Chapter 05
01:06:29.026: :Chapter 06
01:16:38.635: :Chapter 07
01:36:00.087: :Chapter 08




Скачать Плечом к плечу через торрент https://i120.fastpic.org/big/2022/0930/b1/0166e9e610dc1bf9c174ebf805ec82b1.png Скачать, смотреть онлайн Плечом к плечу бесплантно в хорошем качестве Описание: Любой футбольный коллектив на определенном этапе своей карьеры оказывается в поворотной точке. Если приложить максимум труда, ... 10 10 3
Торрент: Зарегистрирован [2022-09-30 18:23] · скачан: 22 раз
Статус: √ проверено
Размер: 9.14 GB
Как cкачать? Как скачать Плечом к плечу через торрент | UTorrent

% Раздел Тема Автор DL S | L
Фильмы 2021 [DVDrip, WEB-DLRip, HDrip] (DUB, MVO) [ 1.46 GB ] Плечом к плечу / Under the Stadium Lights | DUB | BDRip bober100 Скачать
1 | 0
Фильмы (Blu-ray, BD-Remux, HDDVD) [ 18.54 GB ] Плечом к плечу / Under the Stadium Lights | DUB | BD Remux 1080p bober100 Скачать
1 | 0
Фильмы [HD 720p, 1080p] (Хороший звук DUB, MVO) [ 4.74 GB ] Плечом к плечу / Under the Stadium Lights | DUB | 720p bober100 Скачать
3 | 0

28-11-2019 20:33  


Отключить вcю реклaмy на сайте, в т.ч. и в плеере онлайн просмотра!

    Дорогой пользователь! Огромная просьба, поблагодарите релизера, оцените раздачу и оставьте свои комментарий, если Вы скачали Плечом к плечу через торрент бесплатно!!
    Комментировать посты могут только пользователи прошедшие не сложную регистрацию
    Показать сообщения:    


    Плечом к плечу через торрент
    Скачать бесплатно Плечом к плечу
    Плечом к плечу скачать торрент
    Плечом к плечу смотреть онлайн
    Cкачать фильм Плечом к плечу бесплатно
    Плечом к плечу скачать торрент в хорошем качестве
    Плечом к плечу смотреть онлайн бесплатно в хорошем качестве
    Вы не можете начинать темы
    Вы не можете отвечать на сообщения
    Вы не можете редактировать свои сообщения
    Вы не можете удалять свои сообщения
    Вы не можете голосовать в опросах
    Вы не можете прикреплять файлы к сообщениям
    Вы можете скачивать файлы
    Плечом к плечу / Under the Stadium Lights [2021, Боевик, драма, спорт, BDRip 1080p] Дубляж [Zone Vision] смотреть онлайн, скачать торрент picoco.icu