Доктор Стрэндж

Лицензия

Добыча

Дубляж

Дом дракона

1 сезон

Тор

Дубляж

В эфире

Дубляж

Там, где раки поют

MVO

Властелин колец

1 сезон

GLOBAL

pack

Рекомендуем

30

Пиратка

ВАЖНО

ВАЖНО

Ghostwire

Пиратка

jed

RePack

nioh2

RePack

RDR2

RePack

NEED FOR SPEED™ PAYBACK

RePack

скачать торрент

Кинопоиск HD

Острые козырьки 6 сезон

6 сезон

FAR CRY 6

RePack

скачать торрент

Лицензия

скачать торрент

MVO

1

1 сезон

скачать торрент

1 сезон

скачать торрент

Лицензия

  

Блондинка / Blonde (Эндрю Доминик) [2022, Биография, драма, WEB-DL 1080p] MVO [Jaskier]

Блондинка через торрент pb.wtf

Раздают: 4 [ 0.1 KB/s ]
Размер: 8.88 GB | Добавлен: 1 мес. 29 д. назад | Торрент скачан:281 раз
Смотреть онлайн | Скачать   

30-09-2022 19:31 Блондинка Скачать торрент  

Блондинка
Blonde

Год выпуска: 2022
Страна: США
Выпущено: Plan B Entertainment
Жанр: Биография, драма
Продолжительность: 02:47:28
Перевод: Профессиональный (многоголосый) | Jaskier
Субтитры: Русские (Forced, full), английские

Режиссер: Эндрю Доминик

rating

В ролях: Ана де Армас, Гаррет Диллахант, Бобби Каннавале, Эдриан Броуди, Джулианна Николсон, Скут МакНэри, Сара Пэкстон, Ребекка Висоцки, Завьер Сэмюэл, Тоби Хасс, Люси ДеВито, Катрин Дент, Спенсер Гаррет, Каспар Филлипсон, Дэн Батлер

Описание: Байопик о жизни Нормы Джин Бейкер, ставшей самой известной блондинкой в истории Голливуда Мэрилин Монро. Ради этого ей пришлось проделать тяжелый путь от простой девчонки, росшей с безумной мамашей, к статусу секс-символа, заработанному через боль и сломанную психику. Экранизация одноимённого романа Джойс Кэрол Оутс.

Качество: WEB-DL 1080p
Формат: MKV

Видео: MPEG-4 AVC, 6433 Кбит/с, 1920x1080
Аудио #1: AC3, 6 ch, 384 Кбит/с | RUS |
Аудио #2: E-AC3 JOC, 6 ch, 768 Кбит/с | ENG |
скриншот  скриншот  скриншот  скриншот  

General
Unique ID: 193918034170098923665188825240050509516 (0x91E3413F95ED611BD0058E17DD7AA6CC)
Complete name: E:\Torrents\Blonde.2022.1080p_от New-Team_JNS82.mkv
Format: Matroska
Format version: Version 4
File size: 8.88 GiB
Duration: 2 h 47 min
Overall bit rate mode: Variable
Overall bit rate: 7 587 kb/s
Movie name: Blonde.2022.1080p_от New-Team_JNS82
Encoded date: UTC 2022-09-30 13:40:56
Writing application: mkvmerge v59.0.0 ('Shining Star') 64-bit
Writing library: libebml v1.4.2 + libmatroska v1.6.4

Video
ID: 1
Format: AVC
Format/Info: Advanced Video Codec
Format profile: [email protected]
Format settings: CABAC / 4 Ref Frames
Format settings, CABAC: Yes
Format settings, Reference: 4 frames
Codec ID: V_MPEG4/ISO/AVC
Duration: 2 h 47 min
Bit rate mode: Variable
Bit rate: 6 433 kb/s
Maximum bit rate: 20.0 Mb/s
Width: 1 920 pixels
Height: 1 080 pixels
Display aspect ratio: 16:9
Frame rate mode: Constant
Frame rate: 24.000 FPS
Color space: YUV
Chroma subsampling: 4:2:0
Bit depth: 8 bits
Scan type: Progressive
Bits/(Pixel*Frame): 0.129
Stream size: 7.53 GiB (85%)
Writing library: x264 core 148 r2727 7d026e8
Encoding settings: cabac=1 / ref=4 / deblock=1:0:0 / analyse=0x3:0x111 / me=umh / subme=10 / psy=1 / psy_rd=1.00:0.00 / mixed_ref=1 / me_range=120 / chroma_me=1 / trellis=2 / 8x8dct=1 / cqm=0 / deadzone=21, 11 / fast_pskip=1 / chroma_qp_offset=-2 / threads=8 / lookahead_threads=2 / sliced_threads=0 / nr=0 / decimate=1 / interlaced=0 / bluray_compat=0 / stitchable=1 / constrained_intra=0 / bframes=16 / b_pyramid=2 / b_adapt=2 / b_bias=0 / direct=3 / weightb=1 / open_gop=0 / weightp=2 / keyint=240 / keyint_min=121 / scenecut=0 / intra_refresh=0 / rc_lookahead=240 / rc=crf / mbtree=1 / crf=16.0 / qcomp=0.50 / qpmin=6 / qpmax=51 / qpstep=4 / vbv_maxrate=20000 / vbv_bufsize=25000 / crf_max=0.0 / nal_hrd=vbr / filler=0 / ip_ratio=1.40 / aq=1:0.80
Language: English
Default: Yes
Forced: No

Audio #1
ID: 2
Format: AC-3
Format/Info: Audio Coding 3
Commercial name: Dolby Digital
Codec ID: A_AC3
Duration: 2 h 47 min
Bit rate mode: Constant
Bit rate: 384 kb/s
Channel(s): 6 channels
Channel layout: L R C LFE Ls Rs
Sampling rate: 48.0 kHz
Frame rate: 31.250 FPS (1536 SPF)
Compression mode: Lossy
Stream size: 460 MiB (5%)
Title: MVO - Jaskier
Language: Russian
Service kind: Complete Main
Default: Yes
Forced: No

Audio #2
ID: 3
Format: E-AC-3 JOC
Format/Info: Enhanced AC-3 with Joint Object Coding
Commercial name: Dolby Digital Plus with Dolby Atmos
Codec ID: A_EAC3
Duration: 2 h 47 min
Bit rate mode: Constant
Bit rate: 768 kb/s
Channel(s): 6 channels
Channel layout: L R C LFE Ls Rs
Sampling rate: 48.0 kHz
Frame rate: 31.250 FPS (1536 SPF)
Compression mode: Lossy
Stream size: 920 MiB (10%)
Language: English
Service kind: Complete Main
Default: No
Forced: No
Complexity index: 16
Number of dynamic objects: 15
Bed channel count: 1 channel
Bed channel configuration: LFE

Text #1
ID: 4
Format: UTF-8
Codec ID: S_TEXT/UTF8
Codec ID/Info: UTF-8 Plain Text
Duration: 2 h 45 min
Bit rate: 1 b/s
Count of elements: 27
Stream size: 1.53 KiB (0%)
Title: [forced]
Language: Russian
Default: Yes
Forced: No

Text #2
ID: 5
Format: UTF-8
Codec ID: S_TEXT/UTF8
Codec ID/Info: UTF-8 Plain Text
Duration: 2 h 45 min
Bit rate: 53 b/s
Count of elements: 1422
Stream size: 65.1 KiB (0%)
Title: [full]
Language: Russian
Default: No
Forced: No

Text #3
ID: 6
Format: UTF-8
Codec ID: S_TEXT/UTF8
Codec ID/Info: UTF-8 Plain Text
Duration: 2 h 35 min
Bit rate: 34 b/s
Count of elements: 1319
Stream size: 39.6 KiB (0%)
Language: English
Default: No
Forced: No

Text #4
ID: 7
Format: UTF-8
Codec ID: S_TEXT/UTF8
Codec ID/Info: UTF-8 Plain Text
Duration: 2 h 38 min
Bit rate: 44 b/s
Count of elements: 1687
Stream size: 51.2 KiB (0%)
Title: SDH
Language: English
Default: No
Forced: No




Скачать Блондинка через торрент https://i120.fastpic.org/big/2022/0930/2e/0a065be24630b61e216f3604416fea2e.jpg Скачать, смотреть онлайн Блондинка бесплантно в хорошем качестве Описание: Байопик о жизни Нормы Джин Бейкер, ставшей самой известной блондинкой в истории Голливуда Мэрилин Монро. Ради этого ей пришлось ... 9.1 10 14
Info! Золотая раздача, скачанное не засчитывается.
Торрент: Зарегистрирован [2022-09-30 19:31] · скачан: 281 раз
Статус: √ проверено
Размер: 8.88 GB
Как cкачать? Как скачать Блондинка через торрент | UTorrent

% Раздел Тема Автор DL S | L
Фильмы (WEB-DL 720p, 1080p) [ 8.28 GB ] Блондинка / Blonde | DUB | 1080p bober100 Скачать
7 | 0
Фильмы 2022 [DVDrip, WEB-DLRip, HDrip] (DUB, MVO) [ 2.84 GB ] Блондинка / Blonde | DUB | DLRip-AVC bober100 Скачать
7 | 0

28-11-2019 20:33  


Отключить вcю реклaмy на сайте, в т.ч. и в плеере онлайн просмотра!

25-10-2022 17:35 Блондинка Скачать торрент  

Прежде чем смотреть, прочтите отрицательные комментарии на кинопоиске, они отражают реальную оценку этого фильма, там развёрнуто написано о ком, про что и т.д.
В общем: грязный, пошлый, депрессивный, вызывает неприятные ощущения, 3 часа сплошного негатива.



    Дорогой пользователь! Огромная просьба, поблагодарите релизера, оцените раздачу и оставьте свои комментарий, если Вы скачали Блондинка через торрент бесплатно!!
    Комментировать посты могут только пользователи прошедшие не сложную регистрацию
    Показать сообщения:    


    Блондинка через торрент
    Скачать бесплатно Блондинка
    Блондинка скачать торрент
    Блондинка смотреть онлайн
    Cкачать фильм Блондинка бесплатно
    Блондинка скачать торрент в хорошем качестве
    Блондинка смотреть онлайн бесплатно в хорошем качестве
    Вы не можете начинать темы
    Вы не можете отвечать на сообщения
    Вы не можете редактировать свои сообщения
    Вы не можете удалять свои сообщения
    Вы не можете голосовать в опросах
    Вы не можете прикреплять файлы к сообщениям
    Вы можете скачивать файлы
    Блондинка / Blonde [2022, Биография, драма, WEB-DL 1080p] MVO [Jaskier] смотреть онлайн, скачать торрент picoco.icu