Доктор Стрэндж

Лицензия

Добыча

Дубляж

Дом дракона

1 сезон

Тор

Дубляж

В эфире

Дубляж

Там, где раки поют

MVO

Властелин колец

1 сезон

GLOBAL

pack

Рекомендуем

30

Пиратка

ВАЖНО

ВАЖНО

Ghostwire

Пиратка

jed

RePack

nioh2

RePack

RDR2

RePack

NEED FOR SPEED™ PAYBACK

RePack

скачать торрент

Кинопоиск HD

Острые козырьки 6 сезон

6 сезон

FAR CRY 6

RePack

скачать торрент

Лицензия

скачать торрент

MVO

1

1 сезон

скачать торрент

1 сезон

скачать торрент

Лицензия

  

Ирония судьбы в Голливуде / About Fate (Марюс Вайсберг) [2022, Мелодрама, комедия, WEB-DL 1080p] Дубляж [Кириллица]

Ирония судьбы в Голливуде через торрент pb.wtf

Раздают: 5 [ 7 KB/s ]
Размер: 5.12 GB | Добавлен: 1 мес. 29 д. назад | Торрент скачан:277 раз
Смотреть онлайн | Скачать   

30-09-2022 20:07 Ирония судьбы в Голливуде Скачать торрент  

Ирония судьбы в Голливуде
About Fate

Год выпуска: 2022
Страна: США
Выпущено: Aldamisa Entertainment, American International Pictures (AIP), Contentious Media, Vincent Newman Entertainment
Жанр: Мелодрама, комедия
Продолжительность: 01:39:28
Перевод: Дублированный | Кириллица
Субтитры: Aнглийские

Режиссер: Марюс Вайсберг

rating

В ролях: Эмма Робертс, Томас Манн, Мэделин Петш, Льюис Тан, Бритт Робертсон, Фикайл Кани, Джаред Тройло, Шерил Хайнс, Дэннис Старосельский, Меган Холавэй

Описание: Марго и Гриффин вполне могут стать идеальной парой. Единственная проблема в том, что они никогда не встречались, и оба собираются связать себя узами брака с другими людьми. Но все это вот-вот изменится, когда судьба сведет их вместе и откроет глаза на настоящую любовь.

Качество: WEB-DL 1080p
Формат: MKV

Видео: MPEG-4 AVC, 6604 Kb/s, 1920x958
Аудио #1: Russian: 48 kHz, AC3 Dolby Digital, 3/2 (L, C, R, l, r) + LFE ch, ~384 Kbps | Дубляж | Kirillitsa
Аудио #2: English: 48 kHz, AC3 Dolby Digital, 3/2 (L, C, R, l, r) + LFE ch, ~384 Kbps | Original
скриншот  скриншот  скриншот  скриншот  

Complete name : Ironiya.sudbyi.v.Gollivude.2022.WEB-DL.1080p.ELEKTRI4KA.UNIONGANG.mkv
Format : Matroska
Format version : Version 4
File size : 5.12 GiB
Duration : 1 h 39 min
Overall bit rate : 7 375 kb/s
Movie name : Ironiya.sudbyi.v.Gollivude.2022.WEB-DL.1080p.ELEKTRI4KA.UNIONGANG.
Encoded date : UTC 2022-09-30 07:11:59
Writing application : mkvmerge v8.3.0 ('Over the Horizon') 32bit
Writing library : libebml v1.3.1 + libmatroska v1.4.2

Video
ID : 1
Format : AVC
Format/Info : Advanced Video Codec
Format profile : [email protected]
Format settings : CABAC / 4 Ref Frames
Format settings, CABAC : Yes
Format settings, Reference frames : 4 frames
Codec ID : V_MPEG4/ISO/AVC
Duration : 1 h 39 min
Bit rate : 6 604 kb/s
Width : 1 920 pixels
Height : 958 pixels
Display aspect ratio : 2.004
Frame rate mode : Constant
Frame rate : 23.976 (24000/1001) FPS
Color space : YUV
Chroma subsampling : 4:2:0
Bit depth : 8 bits
Scan type : Progressive
Bits/(Pixel*Frame) : 0.150
Stream size : 4.59 GiB (90%)
Language : English
Default : Yes
Forced : No
Color range : Limited
Color primaries : BT.709
Transfer characteristics : BT.709
Matrix coefficients : BT.709

Audio #1
ID : 2
Format : AC-3
Format/Info : Audio Coding 3
Commercial name : Dolby Digital
Codec ID : A_AC3
Duration : 1 h 39 min
Bit rate mode : Constant
Bit rate : 384 kb/s
Channel(s) : 6 channels
Channel layout : L R C LFE Ls Rs
Sampling rate : 48.0 kHz
Frame rate : 31.250 FPS (1536 SPF)
Compression mode : Lossy
Stream size : 273 MiB (5%)
Title : Дубляж (Kirillitsa)
Language : Russian
Service kind : Complete Main
Default : Yes
Forced : Yes

Audio #2
ID : 3
Format : AC-3
Format/Info : Audio Coding 3
Commercial name : Dolby Digital
Codec ID : A_AC3
Duration : 1 h 39 min
Bit rate mode : Constant
Bit rate : 384 kb/s
Channel(s) : 6 channels
Channel layout : L R C LFE Ls Rs
Sampling rate : 48.0 kHz
Frame rate : 31.250 FPS (1536 SPF)
Compression mode : Lossy
Stream size : 273 MiB (5%)
Title : Original
Language : English
Service kind : Complete Main
Default : No
Forced : No

Text #1
ID : 4
Format : UTF-8
Codec ID : S_TEXT/UTF8
Codec ID/Info : UTF-8 Plain Text
Duration : 1 h 34 min
Bit rate : 101 b/s
Count of elements : 2351
Stream size : 70.6 KiB (0%)
Title : SDH
Language : English
Default : No
Forced : No

Text #2
ID : 5
Format : UTF-8
Codec ID : S_TEXT/UTF8
Codec ID/Info : UTF-8 Plain Text
Duration : 1 h 32 min
Bit rate : 92 b/s
Count of elements : 2118
Stream size : 63.2 KiB (0%)
Language : English
Default : No
Forced : No

Text #3
ID : 6
Format : UTF-8
Codec ID : S_TEXT/UTF8
Codec ID/Info : UTF-8 Plain Text
Duration : 10 s 928 ms
Bit rate : 38 b/s
Count of elements : 2
Stream size : 52.0 Bytes (0%)
Title : Forced
Language : English
Default : No
Forced : No

Menu
00:00:00.000 : en:Chapter 01
00:05:49.557 : en:Chapter 02
00:12:10.730 : en:Chapter 03
00:18:41.788 : en:Chapter 04
00:24:31.596 : en:Chapter 05
00:31:16.334 : en:Chapter 06
00:38:50.997 : en:Chapter 07
00:44:48.271 : en:Chapter 08
00:50:13.847 : en:Chapter 09
00:57:34.579 : en:Chapter 10
01:02:52.564 : en:Chapter 11
01:10:24.599 : en:Chapter 12
01:16:03.188 : en:Chapter 13
01:21:20.714 : en:Chapter 14
01:29:26.241 : en:Chapter 15
01:35:16.925 : en:Chapter 16




Скачать Ирония судьбы в Голливуде через торрент https://i120.fastpic.org/big/2022/0930/97/b5a5d4197e721eeebd66a357e2f73d97.jpg Скачать, смотреть онлайн Ирония судьбы в Голливуде бесплантно в хорошем качестве Описание: Марго и Гриффин вполне могут стать идеальной парой. Единственная проблема в том, что они никогда не встречались, и оба собираются ... 10 10 10
Торрент: Зарегистрирован [2022-09-30 20:07] · скачан: 277 раз
Статус: √ проверено
Размер: 5.12 GB
Как cкачать? Как скачать Ирония судьбы в Голливуде через торрент | UTorrent

28-11-2019 20:33  


Отключить вcю реклaмy на сайте, в т.ч. и в плеере онлайн просмотра!

    Дорогой пользователь! Огромная просьба, поблагодарите релизера, оцените раздачу и оставьте свои комментарий, если Вы скачали Ирония судьбы в Голливуде через торрент бесплатно!!
    Комментировать посты могут только пользователи прошедшие не сложную регистрацию
    Показать сообщения:    


    Ирония судьбы в Голливуде через торрент
    Скачать бесплатно Ирония судьбы в Голливуде
    Ирония судьбы в Голливуде скачать торрент
    Ирония судьбы в Голливуде смотреть онлайн
    Cкачать фильм Ирония судьбы в Голливуде бесплатно
    Ирония судьбы в Голливуде скачать торрент в хорошем качестве
    Ирония судьбы в Голливуде смотреть онлайн бесплатно в хорошем качестве
    Вы не можете начинать темы
    Вы не можете отвечать на сообщения
    Вы не можете редактировать свои сообщения
    Вы не можете удалять свои сообщения
    Вы не можете голосовать в опросах
    Вы не можете прикреплять файлы к сообщениям
    Вы можете скачивать файлы
    Ирония судьбы в Голливуде / About Fate [2022, Мелодрама, комедия, WEB-DL 1080p] Дубляж [Кириллица] смотреть онлайн, скачать торрент picoco.icu