Доктор Стрэндж

Лицензия

Добыча

Дубляж

Дом дракона

1 сезон

Тор

Дубляж

В эфире

Дубляж

Там, где раки поют

MVO

Властелин колец

1 сезон

GLOBAL

pack

Рекомендуем

30

Пиратка

ВАЖНО

ВАЖНО

Ghostwire

Пиратка

jed

RePack

nioh2

RePack

RDR2

RePack

NEED FOR SPEED™ PAYBACK

RePack

скачать торрент

Кинопоиск HD

Острые козырьки 6 сезон

6 сезон

FAR CRY 6

RePack

скачать торрент

Лицензия

скачать торрент

MVO

1

1 сезон

скачать торрент

1 сезон

скачать торрент

Лицензия

  

Тела, тела, тела / Bodies Bodies Bodies (Халина Рейн) [2022, Комедия, ужасы, триллер, WEB-DLRip-AVC] MVO [Jaskier]

Тела, тела, тела через торрент pb.wtf

Раздают: 1 [ 0 KB/s ]
Размер: 1.42 GB | Добавлен: 1 мес. 29 д. назад | Торрент скачан:218 раз
Смотреть онлайн | Скачать   

01-10-2022 06:08 Тела, тела, тела Скачать торрент  

Тела, тела, тела
Bodies Bodies Bodies

Год выпуска: 2022
Страна: США
Выпущено: 2AM, A24
Жанр: Комедия, ужасы, триллер
Продолжительность: 01:37:42
Перевод: Профессиональный (многоголосый) | Jaskier
Субтитры: Русские, английские

Режиссер: Халина Рейн

rating

В ролях: Амандла Стенберг, Мария Бакалова, Рэйчел Сеннотт, Чейз Суи Уондерс, Пит Дэвидсон, Миха’ла Херролд, Ли Пейс, Коннер О’Мэлли

Описание: Компания модной молодежи отправляется потусить в доме богатенького приятеля. Веселая вечеринка оборачивается кошмаром, когда молодые люди обнаруживают, что кто-то начал сокращать их количество. Нарастают напряжение и каскад взаимных подозрений, всплывают старые обиды.

Качество: WEB-DLRip-AVC
Формат: MKV

Видео: MPEG-4 AVC, 1024x428 at 23.976 fps, [email protected], ~1575 kbps
Аудио 1: AC3, 2 ch, ~192 kbps - | Русский |
Аудио 2: AC3, 6 ch, ~384 kbps - | Английский |
скриншот  скриншот  скриншот  скриншот  

x264 [info]: frame I:937 Avg QP:14.92 size: 42547
x264 [info]: frame P:30757 Avg QP:16.54 size: 17124
x264 [info]: frame B:103309 Avg QP:18.90 size: 5245
x264 [info]: consecutive B-frames: 1.5% 2.6% 6.3% 38.9% 16.6% 29.2% 2.8% 1.0% 0.2% 0.4% 0.4%

General
Unique ID : 178844752394168304225798180492930756708 (0x868C3F144876B36113361BAF20ACB064)
Complete name : I:Bodies.Bodies.Bodies.2022.WEB-DLRip.x264.seleZen.mkv
Format : Matroska
Format version : Version 4
File size : 1.42 GiB
Duration : 1 h 37 min
Overall bit rate : 2 076 kb/s
Movie name : Bodies.Bodies.Bodies.2022.WEB-DLRip.x264.seleZen
Encoded date : UTC 2022-09-30 13:00:12
Writing application : mkvmerge v70.0.0 ('Caught A Lite Sneeze') 64-bit
Writing library : libebml v1.4.2 + libmatroska v1.6.4
Cover : Yes
Attachments : cover.jpg / small_cover.jpg

Video
ID : 1
Format : AVC
Format/Info : Advanced Video Codec
Format profile : [email protected]
Format settings : CABAC / 14 Ref Frames
Format settings, CABAC : Yes
Format settings, Reference : 14 frames
Codec ID : V_MPEG4/ISO/AVC
Duration : 1 h 33 min
Bit rate : 1 575 kb/s
Width : 1 024 pixels
Height : 428 pixels
Display aspect ratio : 2.40:1
Frame rate mode : Constant
Frame rate : 23.976 (24000/1001) FPS
Color space : YUV
Chroma subsampling : 4:2:0
Bit depth : 8 bits
Scan type : Progressive
Bits/(Pixel*Frame) : 0.150
Stream size : 1.03 GiB (73%)
Title : -=DoMiNo=-
Writing library : x264 core 164 r3099+55M 141af3f t_mod_New | by -=DoMiNo=- | X86_64
Encoding settings : cabac=1 / ref=14 / deblock=1:-3:-2 / analyse=0x3:0x133 / me=umh / subme=10 / psy=1 / fade_compensate=0.00 / psy_rd=1.05:0.15 / mixed_ref=1 / me_range=32 / chroma_me=1 / trellis=2 / 8x8dct=1 / cqm=0 / deadzone=21,11 / fast_pskip=1 / chroma_qp_offset=-3 / threads=16 / lookahead_threads=3 / sliced_threads=0 / nr=0 / decimate=1 / interlaced=0 / bluray_compat=0 / constrained_intra=0 / fgo=0 / bframes=10 / b_pyramid=2 / b_adapt=2 / b_bias=0 / direct=1 / weightb=1 / open_gop=0 / weightp=2 / keyint=250 / keyint_min=23 / scenecut=40 / intra_refresh=0 / rc_lookahead=60 / rc=crf / mbtree=0 / crf=19.5000 / qcomp=0.65 / qpmin=0:0:0 / qpmax=69:69:69 / qpstep=4 / vbv_maxrate=50000 / vbv_bufsize=62500 / crf_max=0.0 / nal_hrd=none / filler=0 / ip_ratio=1.40 / pb_ratio=1.30 / aq=3:0.80 / aq-sensitivity=10.00 / aq-factor=1.00:1.00:1.00 / aq2=0 / aq3=0
Language : English
Default : Yes
Forced : No
Color range : Limited
Color primaries : BT.709
Transfer characteristics : BT.709
Matrix coefficients : BT.709

Audio #1
ID : 2
Format : AC-3
Format/Info : Audio Coding 3
Commercial name : Dolby Digital
Codec ID : A_AC3
Duration : 1 h 37 min
Bit rate mode : Constant
Bit rate : 192 kb/s
Channel(s) : 2 channels
Channel layout : L R
Sampling rate : 48.0 kHz
Frame rate : 31.250 FPS (1536 SPF)
Compression mode : Lossy
Stream size : 134 MiB (9%)
Title : MVO_[Jaskier | Uncensored]
Language : Russian
Service kind : Complete Main
Default : Yes
Forced : Yes

Audio #2
ID : 3
Format : AC-3
Format/Info : Audio Coding 3
Commercial name : Dolby Digital
Codec ID : A_AC3
Duration : 1 h 33 min
Bit rate mode : Constant
Bit rate : 384 kb/s
Channel(s) : 6 channels
Channel layout : L R C LFE Ls Rs
Sampling rate : 48.0 kHz
Frame rate : 31.250 FPS (1536 SPF)
Compression mode : Lossy
Stream size : 258 MiB (18%)
Title : Original
Language : English
Service kind : Complete Main
Default : No
Forced : No

Text #1
ID : 4
Format : UTF-8
Codec ID : S_TEXT/UTF8
Codec ID/Info : UTF-8 Plain Text
Duration : 1 h 33 min
Bit rate : 83 b/s
Count of elements : 1496
Stream size : 57.2 KiB (0%)
Title : Full_[stasslender 18+]
Language : Russian
Default : No
Forced : No

Text #2
ID : 5
Format : UTF-8
Codec ID : S_TEXT/UTF8
Codec ID/Info : UTF-8 Plain Text
Duration : 1 h 27 min
Bit rate : 69 b/s
Count of elements : 1586
Stream size : 44.4 KiB (0%)
Title : Full
Language : English
Default : No
Forced : No

Text #3
ID : 6
Format : UTF-8
Codec ID : S_TEXT/UTF8
Codec ID/Info : UTF-8 Plain Text
Duration : 1 h 33 min
Bit rate : 70 b/s
Count of elements : 1772
Stream size : 48.5 KiB (0%)
Title : SDH
Language : English
Default : No
Forced : No

Menu
00:00:00.000 : en:Глава 01
00:09:10.000 : en:Глава 02
00:18:20.000 : en:Глава 03
00:27:30.000 : en:Глава 04
00:36:40.000 : en:Глава 05
00:45:50.000 : en:Глава 06
00:55:00.000 : en:Глава 07
01:04:10.000 : en:Глава 08
01:13:20.000 : en:Глава 09
01:22:30.000 : en:Глава 10
01:31:40.000 : en:Глава 11




Скачать Тела, тела, тела через торрент https://st-kp-yandex-net.translate.goog/images/film_iphone/iphone360_4496039.jpg Скачать, смотреть онлайн Тела, тела, тела бесплантно в хорошем качестве Описание: Компания модной молодежи отправляется потусить в доме богатенького приятеля. Веселая вечеринка оборачивается кошмаром, когда ... 9.2 10 9
Торрент: Зарегистрирован [2022-10-01 06:08] · скачан: 218 раз
Статус: √ проверено
Размер: 1.42 GB
Как cкачать? Как скачать Тела, тела, тела через торрент | UTorrent

% Раздел Тема Автор DL S | L
Фильмы [HD 720p, 1080p] (Хороший звук DUB, MVO) [ 13.03 GB ] Тела, тела, тела / Bodies Bodies Bodies | Jaskier | 1080p bober100 Скачать
1 | 0



Последний раз редактировалось: bober100 (2022-10-12 03:32), всего редактировалось 1 раз

28-11-2019 20:33  


Отключить вcю реклaмy на сайте, в т.ч. и в плеере онлайн просмотра!

01-10-2022 06:57 Тела, тела, тела Скачать торрент  

тягомотина еще та.



01-10-2022 08:11 Тела, тела, тела Скачать торрент  

Опять повесточнка



01-10-2022 19:52 Тела, тела, тела Скачать торрент  

кафно .



05-10-2022 09:29 Тела, тела, тела Скачать торрент  

а негры будут?



    Дорогой пользователь! Огромная просьба, поблагодарите релизера, оцените раздачу и оставьте свои комментарий, если Вы скачали Тела, тела, тела через торрент бесплатно!!
    Комментировать посты могут только пользователи прошедшие не сложную регистрацию
    Показать сообщения:    


    Тела, тела, тела через торрент
    Скачать бесплатно Тела, тела, тела
    Тела, тела, тела скачать торрент
    Тела, тела, тела смотреть онлайн
    Cкачать фильм Тела, тела, тела бесплатно
    Тела, тела, тела скачать торрент в хорошем качестве
    Тела, тела, тела смотреть онлайн бесплатно в хорошем качестве
    Вы можете начинать темы
    Вы можете отвечать на сообщения
    Вы не можете редактировать свои сообщения
    Вы не можете удалять свои сообщения
    Вы не можете голосовать в опросах
    Вы не можете прикреплять файлы к сообщениям
    Вы можете скачивать файлы
    Тела, тела, тела / Bodies Bodies Bodies [2022, Комедия, ужасы, триллер, WEB-DLRip-AVC] MVO [Jaskier] смотреть онлайн, скачать торрент picoco.icu