Доктор Стрэндж

Лицензия

Добыча

Дубляж

Дом дракона

1 сезон

Тор

Дубляж

В эфире

Дубляж

Там, где раки поют

MVO

Властелин колец

1 сезон

GLOBAL

pack

Рекомендуем

30

Пиратка

ВАЖНО

ВАЖНО

Ghostwire

Пиратка

jed

RePack

nioh2

RePack

RDR2

RePack

NEED FOR SPEED™ PAYBACK

RePack

скачать торрент

Кинопоиск HD

Острые козырьки 6 сезон

6 сезон

FAR CRY 6

RePack

скачать торрент

Лицензия

скачать торрент

MVO

1

1 сезон

скачать торрент

1 сезон

скачать торрент

Лицензия

  

Салют, Начальник / Сезон: 1 / Серии: 1-16 из 16 (Леонид Тележинский) [2022, Комедия, WEBRip-AVC]

Салют, Начальник через торрент pb.wtf

Раздают: 4 [ 7 KB/s ] Качают: 1 [ 0 KB/s ]
Размер: 2.7 GB | Добавлен: 1 мес. 22 д. назад | Торрент скачан:109 раз
Смотреть онлайн | Скачать   

01-10-2022 08:38 Салют, Начальник Скачать торрент  

Салют, Начальник
Год выпуска: 2022
Страна: Россия
Студия: Кинокомпания «ПензаФильмМаш»
Жанр: Комедия
Продолжительность: ~ 00:17:00 серия
Перевод: Не требуется
Субтитры: отсутствуют

Режиссер: Леонид Тележинский



В ролях: Максим Назаров, Ольга Веникова, Денис Сундуков, Илья Хвостиков, Андрей Курносов, Наталья Пярн, Олег Кассин, Андрей Анисеня, Эльвира Ерзикова, Андрей Жуков

Описание: Максим Назаров — молодой городской полицейский, которому хронически не везет на службе. Из-за очередной профессиональной неудачи его отправляют участковым в деревню Чудо. В глухой провинции Назаров налаживает связи с жителями и вскоре узнает о корыстных планах главы местной администрации и московского бизнесмена. Герой пытается помешать алчным управленцам, а параллельно расследует обстоятельства дела, из-за которого его сослали в Чудо.

Качество: WEBRip-AVC
Формат: MKV

Видео: MPEG-4 AVC, ~ 1600 Кбит/с, 1024x576, 25 кадр/с
Аудио: 48.0 kHz, AC3 Dolby Digital, 2/0 (L,R) ch, ~ 192 kbps
скриншот  скриншот  скриншот  скриншот  скриншот  скриншот  

General
Unique ID : 194322855252863966628409790717224861374 (0x92313877FF9D58F4AA627EEF0480BEBE)
Complete name : F:\Салют, Начальник.(2022).WEBRip.(AVC).Files-x\01.Салют, Начальник.(2022).WEBRip.(AVC).by.Серый1779.Files-x.mkv
Format : Matroska
Format version : Version 2
File size : 212 MiB
Duration : 16 min 33 s
Overall bit rate : 1 790 kb/s
Encoded date : UTC 2022-09-30 23:07:52
Writing application : mkvmerge v7.8.0 ('River Man') 32bit built on Apr 3 2015 12:11:22
Writing library : libebml v1.3.1 + libmatroska v1.4.2

Video
ID : 1
Format : AVC
Format/Info : Advanced Video Codec
Format profile : [email protected]
Format settings : CABAC / 9 Ref Frames
Format settings, CABAC : Yes
Format settings, RefFrames : 9 frames
Codec ID : V_MPEG4/ISO/AVC
Duration : 16 min 33 s
Bit rate : 1 600 kb/s
Width : 1 024 pixels
Height : 576 pixels
Display aspect ratio : 16:9
Frame rate mode : Constant
Frame rate : 25.000 FPS
Color space : YUV
Chroma subsampling : 4:2:0
Bit depth : 8 bits
Scan type : Progressive
Bits/(Pixel*Frame) : 0.109
Stream size : 185 MiB (87%)
Writing library : x264 core 146 r2538 121396c
Encoding settings : cabac=1 / ref=9 / deblock=1:-2:-1 / analyse=0x3:0x133 / me=umh / subme=9 / psy=1 / psy_rd=1.00:0.15 / mixed_ref=1 / me_range=32 / chroma_me=1 / trellis=2 / 8x8dct=1 / cqm=0 / deadzone=21,11 / fast_pskip=0 / chroma_qp_offset=-3 / threads=18 / lookahead_threads=3 / sliced_threads=0 / nr=0 / decimate=1 / interlaced=0 / bluray_compat=0 / constrained_intra=0 / bframes=9 / b_pyramid=2 / b_adapt=2 / b_bias=0 / direct=1 / weightb=1 / open_gop=0 / weightp=2 / keyint=250 / keyint_min=25 / scenecut=40 / intra_refresh=0 / rc=2pass / mbtree=0 / bitrate=1600 / ratetol=1.0 / qcomp=0.60 / qpmin=0 / qpmax=69 / qpstep=4 / cplxblur=20.0 / qblur=0.5 / ip_ratio=1.40 / pb_ratio=1.30 / aq=2:1.00
Default : Yes
Forced : No
Color range : Limited
Color primaries : BT.709
Transfer characteristics : BT.709
Matrix coefficients : BT.709

Audio
ID : 2
Format : AC-3
Format/Info : Audio Coding 3
Format settings, Endianness : Big
Codec ID : A_AC3
Duration : 16 min 33 s
Bit rate mode : Constant
Bit rate : 192 kb/s
Channel(s) : 2 channels
Channel positions : Front: L R
Sampling rate : 48.0 kHz
Frame rate : 31.250 FPS (1536 SPF)
Bit depth : 16 bits
Compression mode : Lossy
Stream size : 22.7 MiB (11%)
Service kind : Complete Main
Default : Yes
Forced : No

Внимание! Раздача ведётся путём добавления новых серий; при каждом добавлении создаётся новый торрент. Чтобы начать докачку новой серии, пользователям необходимо сделать следующее: (1) остановить скачивание, (2) удалить старый торрент у себя из клиента (старые серии удалять не надо), (3) скачать новый торрент и запустить его у себя в клиенте вместо старого, при этом указать клиенту путь в старую папку куда и должно происходить скачивание новых серий.

Ваш клиент при этом должен произвести хеширование (проверку) старой папки (если не производит сам - помогите ему сделать это), и будет докачивать только те серии которых у вас ещё нет. Старые серии при этом не удаляются, а продолжают раздаваться!

Eсли вы уже удалили старые серии, то предотвратить повторную закачку старых серий можно, отжав галочку в соответствующих местах при запуске нового торрента.



Скачать Салют, Начальник через торрент https://i120.fastpic.org/big/2022/0917/8e/9f329ebfc6fd959644c496204ed5af8e.jpg Скачать, смотреть онлайн Салют, Начальник бесплантно в хорошем качестве Описание: Максим Назаров — молодой городской полицейский, которому хронически не везет на службе. Из-за очередной профессиональной неудачи ... 9.2 10 13
Торрент: Зарегистрирован [2022-10-08 03:43] · скачан: 109 раз
Статус: √ проверено
Размер: 2.7 GB
Как cкачать? Как скачать Салют, Начальник через торрент | UTorrent

28-11-2019 20:33  


Отключить вcю реклaмy на сайте, в т.ч. и в плеере онлайн просмотра!

    Дорогой пользователь! Огромная просьба, поблагодарите релизера, оцените раздачу и оставьте свои комментарий, если Вы скачали Салют, Начальник через торрент бесплатно!!
    Комментировать посты могут только пользователи прошедшие не сложную регистрацию
    Показать сообщения:    


    Салют, Начальник через торрент
    Скачать бесплатно Салют, Начальник
    Салют, Начальник скачать торрент
    Салют, Начальник смотреть онлайн
    Cкачать фильм Салют, Начальник бесплатно
    Салют, Начальник скачать торрент в хорошем качестве
    Салют, Начальник смотреть онлайн бесплатно в хорошем качестве
    Вы не можете начинать темы
    Вы не можете отвечать на сообщения
    Вы не можете редактировать свои сообщения
    Вы не можете удалять свои сообщения
    Вы не можете голосовать в опросах
    Вы не можете прикреплять файлы к сообщениям
    Вы можете скачивать файлы
    Салют, Начальник / Сезон: 1 / Серии: 1-16 из 16 [2022, Комедия, WEBRip-AVC] смотреть онлайн, скачать торрент picoco.icu