Доктор Стрэндж

Лицензия

Добыча

Дубляж

Дом дракона

1 сезон

Тор

Дубляж

В эфире

Дубляж

Там, где раки поют

MVO

Властелин колец

1 сезон

GLOBAL

pack

Рекомендуем

30

Пиратка

ВАЖНО

ВАЖНО

Ghostwire

Пиратка

jed

RePack

nioh2

RePack

RDR2

RePack

NEED FOR SPEED™ PAYBACK

RePack

скачать торрент

Кинопоиск HD

Острые козырьки 6 сезон

6 сезон

FAR CRY 6

RePack

скачать торрент

Лицензия

скачать торрент

MVO

1

1 сезон

скачать торрент

1 сезон

скачать торрент

Лицензия

  

От рассвета до заката / Американская резня / American Carnage (Диего Халливис) [2022, Триллер, драма, комедия, фантастика, BDRip 1080p] MVO (rus,ukr) [iTunes, GoLTFilm]

От рассвета до заката через торрент pb.wtf

Раздают: 3 [ 0 KB/s ]
Размер: 11.77 GB | Добавлен: 1 мес. 28 д. назад | Торрент скачан:179 раз
Смотреть онлайн | Скачать   

02-10-2022 08:56 От рассвета до заката Скачать торрент  

От рассвета до заката / Американская резня
American Carnage

Год выпуска: 2022
Страна: США
Выпущено: Saban Films
Жанр: Триллер, драма, комедия, фантастика
Продолжительность: 01:41:06
Перевод:
Профессиональный (многоголосый) | iTunes
Любительский (многоголосый) | GoLTFilm
Субтитры: Aнглийские

Режиссер: Диего Халливис

rating

В ролях: Дженна Ортега, Хорхе Лендеборг мл., Аллен Мальдонадо, Эрик Дэйн, Бретт Каллен, Хорхе Диас, Майкл Батиста, Палома Блойд, Тиффани Браун, Джиджи Бургдорф

Описание: Правительство отбирает молодых людей для участия в эксперименте на выживание в стенах специального учреждения. Только выполнив странные желания пациентов учреждения, они смогут обрести свободу. Брату и сестре Джей Пи и Лили, и их новым знакомым предстоит узнать, в чем суть эксперимента, и что скрывает руководство. Что на самом деле движет пациентами, и что за чертовщина творится в этих стенах?

Качество: BDRip 1080p
Формат: MKV

Видео: MPEG-4 AVC, 15.2 Мbit/s, 1920x804, 23.976 fps
Аудио #02: 48 kHz, AC3, 5.1, 384 Kbps | Профессиональный многоголосый | iTunes | RUS |
Аудио #03: 48 kHz, AC3, 2.0, 256 Kbps | Любительский многоголосый | GoLTFilm | RUS |
Аудио #04: 48 kHz, AC3, 2.0, 192 Kbps | Профессиональный многоголосый | SkiDUB | UKR |
Аудио #06: 48 kHz, AC3, 5.1, 640 Kbps | Оригинал | ENG |
скриншот  скриншот  скриншот  скриншот  

General
Unique ID : 220429788028605638448606887860786436061 (0xA5D53BA1F3640F04A1C1D19EDF6C17DD)
Complete name : D:\Ot.rassveta.do.zakata.2022.BDRip.1080p.ELEKTRI4KA.UNIONGANG.mkv
Format : Matroska
Format version : Version 4
File size : 11.8 GiB
Duration : 1 h 41 min
Overall bit rate : 16.7 Mb/s
Movie name : Ot.rassveta.do.zakata.2022.BDRip1080p.ELEKTRI4KA.UNIONGANG
Encoded date : UTC 2022-10-01 13:36:22
Writing application : mkvmerge v8.3.0 ('Over the Horizon') 32bit
Writing library : libebml v1.3.1 + libmatroska v1.4.2

Video
ID : 1
Format : AVC
Format/Info : Advanced Video Codec
Format profile : [email protected]
Format settings : CABAC / 5 Ref Frames
Format settings, CABAC : Yes
Format settings, Reference frames : 5 frames
Codec ID : V_MPEG4/ISO/AVC
Duration : 1 h 41 min
Bit rate : 15.2 Mb/s
Width : 1 920 pixels
Height : 804 pixels
Display aspect ratio : 2.40:1
Frame rate mode : Constant
Frame rate : 23.976 (24000/1001) FPS
Color space : YUV
Chroma subsampling : 4:2:0
Bit depth : 8 bits
Scan type : Progressive
Bits/(Pixel*Frame) : 0.410
Stream size : 10.7 GiB (91%)
Writing library : x264 core 164 r3094+49M Encoded by Azevedo @ iFT
Encoding settings : cabac=1 / ref=5 / deblock=1:-3:-3 / analyse=0x3:0x113 / me=umh / subme=10 / psy=1 / fade_compensate=0.00 / psy_rd=1.00:0.00 / mixed_ref=1 / me_range=32 / chroma_me=1 / trellis=2 / 8x8dct=1 / cqm=0 / deadzone=21,11 / fast_pskip=0 / chroma_qp_offset=-2 / threads=18 / lookahead_threads=4 / sliced_threads=0 / nr=0 / decimate=0 / interlaced=0 / bluray_compat=0 / constrained_intra=0 / fgo=0 / bframes=14 / b_pyramid=2 / b_adapt=2 / b_bias=0 / direct=3 / weightb=1 / open_gop=0 / weightp=2 / keyint=250 / keyint_min=23 / scenecut=40 / intra_refresh=0 / rc_lookahead=60 / rc=crf / mbtree=0 / crf=15.4000 / qcomp=0.60 / qpmin=0:0:0 / qpmax=69:69:69 / qpstep=4 / vbv_maxrate=62500 / vbv_bufsize=78125 / crf_max=0.0 / nal_hrd=none / filler=0 / ip_ratio=1.30 / pb_ratio=1.20 / aq=3:0.80 / aq-sensitivity=10.00 / aq-factor=1.00:1.00:1.00 / aq2=0 / aq3=0 / zones=24,504,crf=13.4
Default : Yes
Forced : No
Color range : Limited
Color primaries : BT.709
Transfer characteristics : BT.709
Matrix coefficients : BT.709

Audio #1
ID : 2
Format : AC-3
Format/Info : Audio Coding 3
Commercial name : Dolby Digital
Codec ID : A_AC3
Duration : 1 h 41 min
Bit rate mode : Constant
Bit rate : 384 kb/s
Channel(s) : 6 channels
Channel layout : L R C LFE Ls Rs
Sampling rate : 48.0 kHz
Frame rate : 31.250 FPS (1536 SPF)
Compression mode : Lossy
Stream size : 278 MiB (2%)
Title : MVO (iTunes)
Language : Russian
Service kind : Complete Main
Default : Yes
Forced : Yes

Audio #2
ID : 3
Format : AC-3
Format/Info : Audio Coding 3
Commercial name : Dolby Digital
Codec ID : A_AC3
Duration : 1 h 41 min
Bit rate mode : Constant
Bit rate : 256 kb/s
Channel(s) : 2 channels
Channel layout : L R
Sampling rate : 48.0 kHz
Frame rate : 31.250 FPS (1536 SPF)
Compression mode : Lossy
Stream size : 185 MiB (2%)
Title : MVO (GoLTFilm)
Language : Russian
Service kind : Complete Main
Default : No
Forced : No

Audio #3
ID : 4
Format : AC-3
Format/Info : Audio Coding 3
Commercial name : Dolby Digital
Codec ID : A_AC3
Duration : 1 h 40 min
Bit rate mode : Constant
Bit rate : 192 kb/s
Channel(s) : 2 channels
Channel layout : L R
Sampling rate : 48.0 kHz
Frame rate : 31.250 FPS (1536 SPF)
Compression mode : Lossy
Stream size : 139 MiB (1%)
Title : MVO (SkiDUB)
Language : Ukrainian
Service kind : Complete Main
Default : No
Forced : No

Audio #4
ID : 5
Format : AC-3
Format/Info : Audio Coding 3
Commercial name : Dolby Digital
Codec ID : A_AC3
Duration : 1 h 41 min
Bit rate mode : Constant
Bit rate : 640 kb/s
Channel(s) : 6 channels
Channel layout : L R C LFE Ls Rs
Sampling rate : 48.0 kHz
Frame rate : 31.250 FPS (1536 SPF)
Compression mode : Lossy
Stream size : 463 MiB (4%)
Title : Original
Language : English
Service kind : Complete Main
Default : No
Forced : No

Text #1
ID : 6
Format : UTF-8
Codec ID : S_TEXT/UTF8
Codec ID/Info : UTF-8 Plain Text
Duration : 1 h 35 min
Bit rate : 60 b/s
Count of elements : 1258
Stream size : 42.0 KiB (0%)
Language : English
Default : No
Forced : No

Text #2
ID : 7
Format : UTF-8
Codec ID : S_TEXT/UTF8
Codec ID/Info : UTF-8 Plain Text
Duration : 1 h 38 min
Bit rate : 68 b/s
Count of elements : 1491
Stream size : 49.2 KiB (0%)
Title : SDH
Language : English
Default : No
Forced : No

Menu
00:00:00.000 : en:Chapter 01
00:07:45.799 : en:Chapter 02
00:13:01.072 : en:Chapter 03
00:18:02.248 : en:Chapter 04
00:23:13.225 : en:Chapter 05
00:32:22.357 : en:Chapter 06
00:37:53.813 : en:Chapter 07
00:41:26.818 : en:Chapter 08
00:48:20.439 : en:Chapter 09
00:54:39.735 : en:Chapter 10
01:00:15.862 : en:Chapter 11
01:04:49.052 : en:Chapter 12
01:11:26.032 : en:Chapter 13
01:20:06.468 : en:Chapter 14
01:28:41.274 : en:Chapter 15
01:33:18.468 : en:Chapter 16




Скачать От рассвета до заката через торрент http://i120.fastpic.org/big/2022/0822/b7/38ce76552fbc3a37d879d3e0f8707db7.jpg Скачать, смотреть онлайн От рассвета до заката бесплантно в хорошем качестве Описание: Правительство отбирает молодых людей для участия в эксперименте на выживание в стенах специального учреждения. Только выполнив ... 10 10 10
Торрент: Зарегистрирован [2022-10-02 08:56] · скачан: 179 раз
Статус: √ проверено
Размер: 11.77 GB
Как cкачать? Как скачать От рассвета до заката через торрент | UTorrent

% Раздел Тема Автор DL S | L
Фильмы 2022 [DVDrip, WEB-DLRip, HDrip] (DUB, MVO) [ 746 MB ] От рассвета до заката / Американская резня / American Carnage | iTunes | BDRip bober100 Скачать
2 | 0
Фильмы 2022 [DVDrip, WEB-DLRip, HDrip] (DUB, MVO) [ 1.93 GB ] От рассвета до заката / Американская резня / American Carnage | iTunes | HDRip-AVC bober100 Скачать
2 | 0
Фильмы 2022 [DVDrip, WEB-DLRip, HDrip] (DUB, MVO) [ 1.46 GB ] От рассвета до заката / Американская резня / American Carnage | iTunes | BDRip bober100 Скачать
7 | 1
T Фильмы 2022 [DVDrip, WEB-DLRip, HDrip] (DUB, MVO) [ 1.71 GB ] От рассвета до заката / Американская резня / American Carnage | MVO | DLRip-AVC Lithuania Скачать
6 | 0

28-11-2019 20:33  


Отключить вcю реклaмy на сайте, в т.ч. и в плеере онлайн просмотра!

    Дорогой пользователь! Огромная просьба, поблагодарите релизера, оцените раздачу и оставьте свои комментарий, если Вы скачали От рассвета до заката через торрент бесплатно!!
    Комментировать посты могут только пользователи прошедшие не сложную регистрацию
    Показать сообщения:    


    От рассвета до заката через торрент
    Скачать бесплатно От рассвета до заката
    От рассвета до заката скачать торрент
    От рассвета до заката смотреть онлайн
    Cкачать фильм От рассвета до заката бесплатно
    От рассвета до заката скачать торрент в хорошем качестве
    От рассвета до заката смотреть онлайн бесплатно в хорошем качестве
    Вы не можете начинать темы
    Вы не можете отвечать на сообщения
    Вы не можете редактировать свои сообщения
    Вы не можете удалять свои сообщения
    Вы не можете голосовать в опросах
    Вы не можете прикреплять файлы к сообщениям
    Вы можете скачивать файлы
    От рассвета до заката / Американская резня / American Carnage [2022, Триллер, драма, комедия, фантастика, BDRip 1080p] MVO [iTunes, GoLTFilm] смотреть онлайн, скачать торрент picoco.icu