Достать ножи: Стеклянная луковица

MVO

Добыча

Дубляж

Уэнсдэй

1 сезон

Тор

Дубляж

13 клиническая

1 сезон

Жестокая ночь

MVO

Одни из нас

1 сезон

Deluxe

pack

Рекомендуем

30

Пиратка

ВАЖНО

ВАЖНО

Ghostwire

Пиратка

jed

RePack

nioh2

RePack

RDR2

RePack

NEED FOR SPEED™ PAYBACK

RePack

скачать торрент

Кинопоиск HD

Острые козырьки 6 сезон

6 сезон

FAR CRY 6

RePack

скачать торрент

Лицензия

скачать торрент

MVO

1

1 сезон

скачать торрент

1 сезон

скачать торрент

Лицензия

  

Симпсоны / The Simpsons / Сезон: 34 / Серии: 1-11 из 22 (Микель Б. Андерсон, Джим Рирдон, Марк Керклэнд) [2022, Комедия, мультсериал, семейный, WEB-DL 1080p] 3xMVO [HDRezka, OMSKBIRD, TVShows]

Симпсоны через торрент pb.wtf

Размер: 6.63 GB | Добавлен: 1 мес. 15 д. назад | Торрент скачан:27 раз
Смотреть онлайн | Скачать | Поддержите нас   

04-10-2022 19:43 Симпсоны Скачать торрент  

Симпсоны | The Simpsons
«Just a product of society that's lost its good manners»
Год выпуска: 2022
Страна: США
Выпущено: 20th Century Fox Television, Universal Network Television, The Gracie Films, Curiosity Company
Жанр: Комедия, мультсериал, семейный
Продолжительность: ~ 00:21:00 серия
Перевод:
- Профессиональный (многоголосый закадровый) | HDRezka
- Любительский (многоголосый закадровый) | OMSKBIRD
- Профессиональный (многоголосый закадровый) | TVShows
Субтитры: Русские (Forced |HDRezka|), английские (SDH)

Режиссер: Микель Б. Андерсон, Джим Рирдон, Марк Керклэнд

rating

В ролях: Дэн Кастелланета (Dan Castellaneta), Нэнси Картрайт (Nancy Cartwright), Гарри Ширер (Harry Shearer), Джули Кавнер (Julie Kavner), Ярдли Смит (Yeardley Smith), Хэнк Азария (Hank Azaria), Памела Хейден (Pamela Hayden), Тресс МакНилл (Tress MacNeille), Крис Эджерли (Chris Edgerly), Карл Видерготт (Karl Wiedergott), Мэгги Росвэлл (Maggie Roswell), Расси Тейлор (Russi Taylor)

Описание: «Симпсоны» - это пародия на всех и вся, и на типичный американский уклад жизни в целом. Главные герои этого мультсериала - показательная в своей типичности семья Симпсонов - обжора и лежебока, недалекий Гомер, его жена-умница домохозяйка Мардж, их дети сорванец Барт, одаренная умная девочка Лиза и совсем еще младенец Мэгги. Каждая серия не только богата юмором, но и высмеивает одну из волнующих современного человека тем, так что сериал с успехом пережил более 25 сезонов и продолжает успешное шествие по экранам. Отрезки, шутки, сами герои Симпсонов стали неотъемлемой частью современной поп-культуры, а их имена стали именами нарицательными.

Качество: WEB-DL 1080p
Формат: MKV

Видео: AVC, 1920 x 1080 (1.778), 23.976 fps, ~3 060 kbps
Аудио Rus: AC-3, 48 kHz, 6 ch, 384 kbps |HDRezka|
Аудио Rus: AC-3, 48 kHz, 2 ch, 192 kbps |OMSKBIRD |
Аудио Rus: AC-3, 48 kHz, 2 ch, 192 kbps |TVShows|
Аудио Eng: E-AC-3, 48 kHz, 6 ch, 256 kbps |Original|
скриншот  скриншот  скриншот  скриншот  

Общее
Уникальный идентификатор : 176816772061919354047151752714188616452 (0x8505ABEDDF5385817C3C31BCF285F304)
Полное имя : E:\_Сериалы\_Сериалы\Симпсоны\The.Simpsons.S34.WEBDL.1080p.Rus.Eng\The.Simpsons.S34E01.WEBDL.1080p.RGzsRutracker.mkv
Формат : Matroska
Версия формата : Version 4
Размер файла : 643 Мбайт
Продолжительность : 21 м. 39 с.
Общий поток : 4 151 Кбит/сек
Дата кодирования : UTC 2022-10-04 19:05:09
Программа кодирования : mkvmerge v70.0.0 ('Caught A Lite Sneeze') 64-bit
Библиотека кодирования : libebml v1.4.2 + libmatroska v1.6.4

Видео
Идентификатор : 1
Формат : AVC
Формат/Информация : Advanced Video Codec
Профиль формата : [email protected]
Настройки формата : CABAC / 4 Ref Frames
Параметр CABAC формата : Да
Параметр RefFrames формата : 4 кадра
Идентификатор кодека : V_MPEG4/ISO/AVC
Продолжительность : 21 м. 39 с.
Битрейт : 3 060 Кбит/сек
Ширина : 1 920 пикселей
Высота : 1 080 пикселей
Соотношение сторон : 16:9
Режим частоты кадров : Постоянный
Частота кадров : 23,976 (24000/1001) кадра/сек
Цветовое пространство : YUV
Субдискретизация насыщенности : 4:2:0
Битовая глубина : 8 бит
Тип развёртки : Прогрессивная
Бит/(Пиксели*Кадры) : 0.062
Размер потока : 474 Мбайт (74%)
Язык : English
Default : Да
Forced : Нет

Аудио #1
Идентификатор : 2
Формат : AC-3
Формат/Информация : Audio Coding 3
Коммерческое название : Dolby Digital
Идентификатор кодека : A_AC3
Продолжительность : 21 м. 39 с.
Вид битрейта : Постоянный
Битрейт : 448 Кбит/сек
Каналы : 6 каналов
Channel layout : L R C LFE Ls Rs
Частота : 48,0 КГц
Частота кадров : 31,250 кадров/сек (1536 SPF)
Метод сжатия : С потерями
Размер потока : 69,4 Мбайт (11%)
Заголовок : HDr
Язык : Russian
Service kind : Complete Main
Default : Да
Forced : Нет

Аудио #2
Идентификатор : 3
Формат : AC-3
Формат/Информация : Audio Coding 3
Коммерческое название : Dolby Digital
Идентификатор кодека : A_AC3
Продолжительность : 21 м. 39 с.
Вид битрейта : Постоянный
Битрейт : 192 Кбит/сек
Каналы : 2 канала
Channel layout : L R
Частота : 48,0 КГц
Частота кадров : 31,250 кадров/сек (1536 SPF)
Метод сжатия : С потерями
Размер потока : 29,7 Мбайт (5%)
Заголовок : OBird
Язык : Russian
Service kind : Complete Main
Default : Нет
Forced : Нет

Аудио #3
Идентификатор : 4
Формат : AC-3
Формат/Информация : Audio Coding 3
Коммерческое название : Dolby Digital
Идентификатор кодека : A_AC3
Продолжительность : 21 м. 39 с.
Вид битрейта : Постоянный
Битрейт : 192 Кбит/сек
Каналы : 2 канала
Channel layout : L R
Частота : 48,0 КГц
Частота кадров : 31,250 кадров/сек (1536 SPF)
Метод сжатия : С потерями
Размер потока : 29,8 Мбайт (5%)
Заголовок : TVS
Язык : Russian
Service kind : Complete Main
Default : Нет
Forced : Нет

Аудио #4
Идентификатор : 5
Формат : E-AC-3
Формат/Информация : Enhanced AC-3
Коммерческое название : Dolby Digital Plus
Идентификатор кодека : A_EAC3
Продолжительность : 21 м. 39 с.
Вид битрейта : Постоянный
Битрейт : 256 Кбит/сек
Каналы : 6 каналов
Channel layout : L R C LFE Ls Rs
Частота : 48,0 КГц
Частота кадров : 31,250 кадров/сек (1536 SPF)
Метод сжатия : С потерями
Размер потока : 39,7 Мбайт (6%)
Заголовок : Eng
Язык : English
Service kind : Complete Main
Default : Нет
Forced : Нет

Текст #1
Идентификатор : 6
Формат : UTF-8
Идентификатор кодека : S_TEXT/UTF8
Идентификатор кодека/Информация : UTF-8 Plain Text
Продолжительность : 19 м. 50 с.
Битрейт : 11 бит/сек
Частота кадров : 0,030 кадр/сек
Count of elements : 36
Размер потока : 1,73 Кбайт (0%)
Заголовок : Forc
Язык : Russian
Default : Да
Forced : Нет

Текст #2
Идентификатор : 7
Формат : UTF-8
Идентификатор кодека : S_TEXT/UTF8
Идентификатор кодека/Информация : UTF-8 Plain Text
Продолжительность : 21 м. 5 с.
Битрейт : 104 бит/сек
Частота кадров : 0,396 кадр/сек
Count of elements : 501
Размер потока : 16,1 Кбайт (0%)
Заголовок : Eng
Язык : English
Default : Нет
Forced : Нет

Текст #3
Идентификатор : 8
Формат : UTF-8
Идентификатор кодека : S_TEXT/UTF8
Идентификатор кодека/Информация : UTF-8 Plain Text
Продолжительность : 21 м. 28 с.
Битрейт : 106 бит/сек
Частота кадров : 0,405 кадр/сек
Count of elements : 522
Размер потока : 16,8 Кбайт (0%)
Заголовок : SDH
Язык : English
Default : Нет
Forced : Нет

Меню
00:00:00.000 : en:Chapter 1
00:06:53.022 : en:Chapter 2
00:13:43.011 : en:Chapter 3
00:20:44.001 : en:Chapter 4

Когда раздача ведётся путём добавления новых серий, при каждом добавлении создётся новый торрент. Чтобы начать докачку новой серии, пользователям необходимо сделать следующее:
(1) остановить скачивание,
(2) удалить старый торрент у себя из клиента (старые серии удалять не надо),
(3) скачать новый торрент и запустить его у себя в клиенте вместо старого, при этом указать клиенту путь в старую папку, куда и должно происходить скачивание новых серий.
Ваш клиент при этом должен произвести хеширование (проверку) старой папки (если не производит сам - помогите ему сделать это), и будет докачивать только те серии, которых у вас ещё нет. Старые серии при этом не удаляются, а продолжают раздаваться!
Eсли вы уже удалили старые серии, то предотвратить повторную закачку старых серий можно, отжав галочку в соответсвующих местах при запуске нового торрента. По возможности, желательно не удалять старые серии как можно дольше, чтобы релизёр не столько продолжал раздавать старые серии, а смог сконцентрироваться на новых.




Скачать Симпсоны через торрент https://i7-imageban-ru.translate.goog/out/2022/10/01/ea1b7d0ae01f720e623b663c7f05e706.png Скачать, смотреть онлайн Симпсоны бесплантно в хорошем качестве Описание: «Симпсоны» - это пародия на всех и вся, и на ичный американский уклад жизни в целом. Главные герои этого мультсериала - ... 10 10 8
Торрент: Зарегистрирован [2022-12-22 03:45] · скачан: 27 раз
Статус: √ проверено
Размер: 6.63 GB
Как cкачать? Как скачать Симпсоны через торрент | UTorrent

28-11-2019 20:33  


Отключить вcю реклaмy на сайте, в т.ч. и в плеере онлайн просмотра!

    Дорогой пользователь! Огромная просьба, поблагодарите релизера, оцените раздачу и оставьте свои комментарий, если Вы скачали Симпсоны через торрент бесплатно!!
    Комментировать посты могут только пользователи прошедшие не сложную регистрацию
    Показать сообщения:    


    Симпсоны через торрент
    Скачать бесплатно Симпсоны
    Симпсоны скачать торрент
    Симпсоны смотреть онлайн
    Cкачать фильм Симпсоны бесплатно
    Симпсоны скачать торрент в хорошем качестве
    Симпсоны смотреть онлайн бесплатно в хорошем качестве
    Вы не можете начинать темы
    Вы не можете отвечать на сообщения
    Вы не можете редактировать свои сообщения
    Вы не можете удалять свои сообщения
    Вы не можете голосовать в опросах
    Вы не можете прикреплять файлы к сообщениям
    Вы можете скачивать файлы
    Симпсоны / The Simpsons / Сезон: 34 / Серии: 1-11 из 22 [2022, Комедия, мультсериал, семейный, WEB-DL 1080p] 3xMVO [HDRezka, OMSKBIRD, TVShows] смотреть онлайн, скачать торрент picoco.icu