Достать ножи: Стеклянная луковица

MVO

Добыча

Дубляж

Уэнсдэй

1 сезон

Тор

Дубляж

13 клиническая

1 сезон

Жестокая ночь

MVO

Одни из нас

1 сезон

Deluxe

pack

Рекомендуем

30

Пиратка

ВАЖНО

ВАЖНО

Ghostwire

Пиратка

jed

RePack

nioh2

RePack

RDR2

RePack

NEED FOR SPEED™ PAYBACK

RePack

скачать торрент

Кинопоиск HD

Острые козырьки 6 сезон

6 сезон

FAR CRY 6

RePack

скачать торрент

Лицензия

скачать торрент

MVO

1

1 сезон

скачать торрент

1 сезон

скачать торрент

Лицензия

  

РобоКоп / RoboCop (Жозе Падилья) [2014 г., боевик,фантастика,криминал, BDRip 720p / 60 FPS, Дубляж] от R.G. HD-Films

РобоКоп через торрент pb.wtf

Размер: 4.07 GB | Добавлен: 3 мес. 26 д. назад | Торрент скачан:88 раз
Смотреть онлайн | Скачать | Поддержите нас   

05-10-2022 10:54 РобоКоп Скачать торрент  

РобоКоп / RoboCop
Год выпуска: 2014
Страна: США
Жанр: боевик,фантастика,криминал
Продолжительность: 01:57:22
Перевод: Дубляж
Субтитры: Русские (Forced вшитые, full), английские

Режиссер: Жозе Падилья

Премьера в мире: 30 января 2014

rating

В ролях: Юэль Киннаман, Гари Олдман, Майкл Китон, Эбби Корниш, Джеки Эрл Хейли, Сэмюэл Л. Джексон, Майкл Кеннет Уильямс, Дженнифер Эль, Марианн Жан-Батист, Эйми Гарсиа

Описание: 2028 год. Международный конгломерат ОмниКорп лидирует в производстве робототехники. Благодаря разработкам компании Америка успешно побеждает в войнах по всему миру. Но теперь пришло время применить технологию на американской земле. Алекс Мерфи - любящий муж, отец и отличный полицейский, оберегающий порядок в Детройте, получает на службе смертельные ранения. Специалисты ОмниКорпа, используя новейшие разработки, сохраняют ему жизнь. Алекс возвращается на службу в родной город не только с новыми сверхспособностями, но и с проблемами, с которыми не сталкивался ни один живой человек.

Качество: BDRip 720p / 60 FPS
Формат: MKV
Видео кодек: H.264
Аудио кодек: AC3
Видео: x264, 1280 x 536 ( 2,40:1 ), 4578 kbps, 60,000 fps, ( 0.111 bpp)
Аудио#2: Русский, AC-3, 48.0 KHz, 6 ch, 384 Kbps Дубляж
Релиз от: Автор рипа: slaventi-69
x264 [info]: using cpu capabilities: MMX2 SSE2Fast SSSE3 SSE4.2 AVX AVX2 FMA3 LZCNT BMI1 BMI2
x264 [info]: profile High, level 4.1
x264 [info]: frame I:1484 Avg QP:15.27 size: 86485
x264 [info]: frame P:96568 Avg QP:16.29 size: 22085
x264 [info]: frame B:324476 Avg QP:18.91 size: 5451
x264 [info]: consecutive B-frames: 1.3% 2.8% 9.5% 16.1% 48.6% 21.7%


Общее
Уникальный идентификатор : 228570374998818360799930366142472742942 (0xABF50D8EDA35D061DF309B86AD3F681E)
Полное имя : G:\60 FPS\RoboCop.(2014).BDRip.720p.(60 Fps).mkv
Формат : Matroska
Версия формата : Version 4
Размер файла : 4,07 Гбайт
Продолжительность : 1 ч. 57 м.
Общий поток : 4966 Кбит/сек
Название фильма : РобоКоп / RoboCop (2014) BDRip 720p (60 Fps)
Дата кодирования : UTC 2022-10-05 10:33:44
Программа кодирования : mkvmerge v69.0.0 ('Day And Age') 64-bit
Библиотека кодирования : libebml v1.4.2 + libmatroska v1.6.4

Видео
Идентификатор : 1
Формат : AVC
Формат/Информация : Advanced Video Codec
Профиль формата : [email protected]
Настройки формата : CABAC / 9 Ref Frames
Параметр CABAC формата : Да
Параметр RefFrames формата : 9 кадров
Идентификатор кодека : V_MPEG4/ISO/AVC
Продолжительность : 1 ч. 57 м.
Битрейт : 4578 Кбит/сек
Ширина : 1280 пикселей
Высота : 536 пикселей
Соотношение сторон : 2,40:1
Режим частоты кадров : Постоянный
Частота кадров : 60,000 кадров/сек
Цветовое пространство : YUV
Субдискретизация насыщенности : 4:2:0
Битовая глубина : 8 бит
Тип развёртки : Прогрессивная
Бит/(Пиксели*Кадры) : 0.111
Размер потока : 3,75 Гбайт (92%)
Заголовок : slaventi-69 ( R.G. HD-Films | 60 fps )
Библиотека кодирования : x264 core 130 r2273 b3065e6
Настройки программы : cabac=1 / ref=9 / deblock=1:-3:-3 / analyse=0x3:0x133 / me=umh / subme=9 / psy=1 / psy_rd=1.00:0.00 / mixed_ref=1 / me_range=32 / chroma_me=1 / trellis=2 / 8x8dct=1 / cqm=0 / deadzone=21,11 / fast_pskip=0 / chroma_qp_offset=-2 / threads=8 / lookahead_threads=4 / sliced_threads=0 / nr=0 / decimate=1 / interlaced=0 / bluray_compat=0 / constrained_intra=0 / bframes=5 / b_pyramid=2 / b_adapt=2 / b_bias=0 / direct=1 / weightb=1 / open_gop=0 / weightp=2 / keyint=600 / keyint_min=23 / scenecut=40 / intra_refresh=0 / rc=crf / mbtree=0 / crf=15.8 / qcomp=0.60 / qpmin=0 / qpmax=69 / qpstep=4 / ip_ratio=1.40 / pb_ratio=1.30 / aq=1:1.00
Язык : English
Default : Да
Forced : Нет

Аудио
Идентификатор : 2
Формат : AC-3
Формат/Информация : Audio Coding 3
Коммерческое название : Dolby Digital
Идентификатор кодека : A_AC3
Продолжительность : 1 ч. 57 м.
Вид битрейта : Постоянный
Битрейт : 384 Кбит/сек
Каналы : 6 каналов
Channel layout : L R C LFE Ls Rs
Частота : 48,0 КГц
Частота кадров : 31,250 кадров/сек (1536 SPF)
Битовая глубина : 16 бит
Метод сжатия : С потерями
Размер потока : 322 Мбайт (8%)
Заголовок : Дубляж
Язык : Russian
ServiceKind/String : Complete Main
Default : Да
Forced : Нет

Текст #1
Идентификатор : 3
Формат : UTF-8
Идентификатор кодека : S_TEXT/UTF8
Идентификатор кодека/Информация : UTF-8 Plain Text
Продолжительность : 1 ч. 50 м.
Битрейт : 94 бит/сек
ElementCount : 1647
Размер потока : 77,0 Кбайт (0%)
Заголовок : Rus
Язык : Russian
Default : Нет
Forced : Нет

Текст #2
Идентификатор : 4
Формат : UTF-8
Идентификатор кодека : S_TEXT/UTF8
Идентификатор кодека/Информация : UTF-8 Plain Text
Продолжительность : 1 ч. 51 м.
Битрейт : 66 бит/сек
ElementCount : 1740
Размер потока : 54,2 Кбайт (0%)
Заголовок : Eng
Язык : English
Default : Нет
Forced : Нет

Меню
00:00:00.000 : :Chapter 01
00:04:33.898 : :Chapter 02
00:08:51.739 : :Chapter 03
00:14:33.914 : :Chapter 04
00:17:01.603 : :Chapter 05
00:19:27.040 : :Chapter 06
00:21:52.936 : :Chapter 07
00:26:13.571 : :Chapter 08
00:30:47.971 : :Chapter 09
00:32:48.675 : :Chapter 10
00:36:12.378 : :Chapter 11
00:39:06.969 : :Chapter 12
00:43:03.497 : :Chapter 13
00:45:40.654 : :Chapter 14
00:52:10.377 : :Chapter 15
00:57:21.187 : :Chapter 16
01:01:23.888 : :Chapter 17
01:02:59.901 : :Chapter 18
01:06:05.920 : :Chapter 19
01:10:30.476 : :Chapter 20
01:13:26.527 : :Chapter 21
01:18:24.866 : :Chapter 22
01:21:56.202 : :Chapter 23
01:26:04.993 : :Chapter 24
01:28:06.906 : :Chapter 25
01:32:02.975 : :Chapter 26
01:35:52.955 : :Chapter 27
01:38:30.654 : :Chapter 28
01:41:30.751 : :Chapter 29
01:43:44.635 : :Chapter 30
01:46:41.561 : :Chapter 31
01:50:12.689 : :Chapter 32
01:57:28.958 : :Chapter 33

Просьба к переливающим на другие сайты, в оформлении указывайте пожалуйста авторство группы R.G. HD-Films



Скачать РобоКоп через торрент https://st-kp-yandex-net.translate.goog/images/film_iphone/iphone360_416183.jpg Скачать, смотреть онлайн РобоКоп бесплантно в хорошем качестве Описание: 2028 год. Международный конгломерат ОмниКорп лидирует в производстве робототехники. Благодаря разработкам компании Америка ... 9.2 10 6
Торрент: Зарегистрирован [2022-10-05 10:54] · скачан: 88 раз
Статус: √ проверено
Размер: 4.07 GB
Как cкачать? Как скачать РобоКоп через торрент | UTorrent

% Раздел Тема Автор DL S | L
Фильмы [HD 720p, 1080p] (Хороший звук DUB, MVO) [ 8.25 GB ] Робокоп / RoboCop | Дубляж + Оригинал | 1080p, Дубляж + Оригинал Бумер Скачать
1 | 0
Фильмы (Blu-ray, BD-Remux, HDDVD) [ 35.6 GB ] Робокоп / RoboCop | DUB | 1080p sheker187 Скачать
1 | 0
Фильмы [HD 720p, 1080p] (Хороший звук DUB, MVO) [ 4.14 GB ] РобоКоп / RoboCop | Дубляж | 1080p [HEVC Мичман37 Скачать
1 | 0
Фильмы 2014 [DVDrip, WEB-DLRip, HDrip] [ 2.18 GB ] Робокоп / RoboCop | Лицензия | BDRip-AVC potroks Скачать
1 | 0
Фильмы 2014 [DVDrip, WEB-DLRip, HDrip] [ 1.45 GB ] Робокоп / RoboCop | Лицензия | BDRip-AVC potroks Скачать
1 | 0
Фильмы 2013 [DVDrip, WEB-DLRip, HDrip] [ 1008 MB ] РобоКоп / RoboCop | Лицензия | DLRip killermax2013 Скачать
1 | 0
Фильмы (DVD фильмы) [ 6.28 GB ] РобоКоп / RoboCop | | 2014, фантастика, боевик, криминал, DVD9 voovaz Скачать
1 | 0

28-11-2019 20:33  


Отключить вcю реклaмy на сайте, в т.ч. и в плеере онлайн просмотра!

06-10-2022 18:18 РобоКоп Скачать торрент  

8 лет назад! как жизнь летит то!



08-10-2022 05:29 РобоКоп Скачать торрент  

Спасибо, но это не то! Честно сказать этот фильм как робокоп вообще не рассматриваю! Хотел трилогию с Питером Уэллером в главных ролях!
Трилогия есть на сайте только размерчик великоват и сидеров нет!



08-10-2022 23:01 РобоКоп Скачать торрент  

Ожидал шлак. Фильм норм.
По сравнению с тем что сейчас снимают в 2022 то я бы сказал что фильм супер.
Интересный, экшен, в стиле никто кроме меня.



    Дорогой пользователь! Огромная просьба, поблагодарите релизера, оцените раздачу и оставьте свои комментарий, если Вы скачали РобоКоп через торрент бесплатно!!
    Комментировать посты могут только пользователи прошедшие не сложную регистрацию
    Показать сообщения:    


    РобоКоп через торрент
    Скачать бесплатно РобоКоп
    РобоКоп скачать торрент
    РобоКоп смотреть онлайн
    Cкачать фильм РобоКоп бесплатно
    РобоКоп скачать торрент в хорошем качестве
    РобоКоп смотреть онлайн бесплатно в хорошем качестве
    Вы не можете начинать темы
    Вы не можете отвечать на сообщения
    Вы не можете редактировать свои сообщения
    Вы не можете удалять свои сообщения
    Вы не можете голосовать в опросах
    Вы не можете прикреплять файлы к сообщениям
    Вы можете скачивать файлы
    РобоКоп / RoboCop [2014 г., боевик,фантастика,криминал, BDRip 720p / 60 FPS, Дубляж] от R.G. HD-Films смотреть онлайн, скачать торрент picoco.icu