Архив 81

1 сезон

Добыча

Дубляж

Тед Лассо

3 сезон

Тор

1 сезон

13 клиническая

3 сезон

Жестокая ночь

Дубляж

Одни из нас

Лицензия

The Last of Us игра на PC

Extended

Deluxe

Deluxe

pack

Рекомендуем

30

Repack

ВАЖНО

ВАЖНО

Ghostwire

Пиратка

jed

RePack

nioh2

RePack

RDR2

RePack

NEED FOR SPEED™ PAYBACK

RePack

скачать торрент

Кинопоиск HD

Острые козырьки 6 сезон

6 сезон

FAR CRY 6

RePack

скачать торрент

Лицензия

скачать торрент

MVO

1

1 сезон

скачать торрент

1 сезон

скачать торрент

Лицензия

  

Детективный синдром / Сезон: 1 / Серии: 1-8 из 8 (Роман Волобуев) [2019, Драма, WEB-DLRip]

Детективный синдром через торрент pb.wtf

Раздают: 1 [ 0 KB/s ]
Размер: 5.03 GB | Добавлен: 4 мес. 13 д. назад | Торрент скачан:35 раз
Смотреть онлайн | Скачать | Поддержите нас   

06-10-2022 04:01 Детективный синдром Скачать торрент  

Детективный синдром
Год выпуска: 2019
Страна: Россия
Производство: ООО Продюсерская компания «Среда»
Жанр: Драма
Продолжительность: ~ 00:50:00
Субтитры: отсутствуют

Режиссер: Роман Волобуев



В ролях: Аристарх Венес, Кристина Казинская, Анна Шепелева, Фёдор Лавров, Сергей Епишев, Александр Голубков, Павел Чинарёв, Валерия Куликова, Владислав Тирон, Андрей Капустин, Сергей Аброскин, Сергей Муравьёв, Александр Танхилевич, Илья Савельев, Олег Васильков, Мария Сурова, Александр Корженков, Елена Симони, Анастасия Попова, Анна Урюмцева, Ольга Кавалай-Аксенова, Егор Морозов, Сергей Гилев, Никита Абдулов, Олег Флеер, Татьяна Полосина, Антон Никушин, Инесса Чиркина, Полина Федина, Катерина Мезина, Антон Ушаков, Дмитрий Архангельский, Сергей Карлов, Андрей Железный, Виктор Венес, Евгений Пилипенко, Кирилл Жиров, Юля Беляева, Вадим Гусев, Анастасия Лапина, Валерия Дмитриева

Описание: Павел – обыкновенный юноша, отец которого однажды без объяснений покинул семью. Но, вместо того, чтобы злиться на родителя, Паша не верит, что папа мог совершить плохой поступок преднамеренно и решает расследовать его исчезновение, придумывая всякого рода теории, и по ходу событий проверяя их истинность. Жизнь без отца оказывается непростой – мальчика прижимает денежная нужда, и он спутывается с криминальным авторитетом Германом, который дает подопечному мелкие поручения за хорошую плату. Однажды бандит поручает Паше перевезти сумку с деньгами, но во время поездки, тот теряет ее. Понимая, что дела плохи, парень решает попробовать отыскать сумку самостоятельно. Поиски приводят его в сумасшедший дом.

Качество: WEB-DLRip
Формат: AVI

Видео: XviD, 720x400, ~ 1600 Кбит/с, 0.222 bit/pixel, 25 Кадр/с
Аудио: 48.0 kHz, AC3 Dolby Digital, 2/0 (L,R) ch, ~ 192 kbps
скриншот  скриншот  скриншот  

Общее
Полное имя : D:\Детективный синдром .2019.WEB-DLRip.Files-x\01. Детективный синдром .2019.WEB-DLRip.Files-x.avi
Формат : AVI
Формат/Информация : Audio Video Interleave
Размер файла : 670 Мбайт
Продолжительность : 52 м. 1 с.
Общий поток : 1 802 Кбит/сек
Программа кодирования : VirtualDubMod 1.5.10.3 | www.virtualdub-fr.org || (build 2550/release)
Библиотека кодирования : VirtualDubMod build 2550/release

Видео
Идентификатор : 0
Формат : MPEG-4 Visual
Профиль формата : Advanced [email protected]
Настройки формата : BVOP1 / Custom Matrix
Параметр BVOP формата : 1
Параметр QPel формата : Нет
Параметр GMC формата : Без точки перехода
Параметр матрицы формата : Выборочная
Идентификатор кодека : XVID
Идентификатор кодека/Подсказка : XviD
Продолжительность : 52 м. 1 с.
Битрейт : 1 600 Кбит/сек
Ширина : 720 пикселей
Высота : 400 пикселей
Соотношение сторон : 16:9
Частота кадров : 25,000 кадров/сек
Цветовое пространство : YUV
Субдискретизация насыщенности : 4:2:0
Битовая глубина : 8 бит
Тип развёртки : Прогрессивная
Метод сжатия : С потерями
Бит/(Пиксели*Кадры) : 0.222
Размер потока : 595 Мбайт (89%)
Библиотека кодирования : XviD 1.2.1 (UTC 2008-12-04)

Аудио
Идентификатор : 1
Формат : AC-3
Формат/Информация : Audio Coding 3
Коммерческое название : Dolby Digital
Идентификатор кодека : 2000
Продолжительность : 52 м. 1 с.
Вид битрейта : Постоянный
Битрейт : 192 Кбит/сек
Каналы : 2 канала
Channel layout : L R
Частота : 48,0 КГц
Частота кадров : 31,250 кадров/сек (1536 SPF)
Метод сжатия : С потерями
Размер потока : 71,4 Мбайт (11%)
Выравнивание : Разделение по промежуткам
Продолжительность промежутка : 40 мс. (1,00 видеокадр)
Время предзагрузки промежутка : 500 мс.
Service kind : Complete Main

Когда раздача ведётся путём добавления новых серий, при каждом добавлении создётся новый торрент. Чтобы начать докачку новой серии, пользователям необходимо сделать следующее:
(1) остановить скачивание,
(2) удалить старый торрент у себя из клиента (старые серии удалять не надо),
(3) скачать новый торрент и запустить его у себя в клиенте вместо старого, при этом указать клиенту путь в старую папку, куда и должно происходить скачивание новых серий.
Ваш клиент при этом должен произвести хеширование (проверку) старой папки (если не производит сам - помогите ему сделать это), и будет докачивать только те серии, которых у вас ещё нет. Старые серии при этом не удаляются, а продолжают раздаваться!
Eсли вы уже удалили старые серии, то предотвратить повторную закачку старых серий можно, отжав галочку в соответсвующих местах при запуске нового торрента. По возможности, желательно не удалять старые серии как можно дольше, чтобы релизёр не столько продолжал раздавать старые серии, а смог сконцентрироваться на новых.



Скачать Детективный синдром через торрент https://i120.fastpic.org/big/2022/1005/71/febc698ed3facbd432922448790d0171.jpg Скачать, смотреть онлайн Детективный синдром бесплантно в хорошем качестве Описание: Павел – обыкновенный юноша, отец которого однажды без объяснений покинул семью. Но, вместо того, чтобы злиться на родителя, Паша ... 8.5 10 6
Торрент: Зарегистрирован [2022-11-17 15:28] · скачан: 35 раз
Статус: √ проверено
Размер: 5.03 GB
Как cкачать? Как скачать Детективный синдром через торрент | UTorrent

% Раздел Тема Автор DL S | L
Наши сериалы [ 4.88 GB ] Детективный синдром / Сезон: 1 / Серии: 1-8 из 8 | | DLRip-AVC bober100 Скачать
1 | 0
Наши сериалы [ 11.67 GB ] Детективный синдром / Сезон: 1 / Серии: 1-8 из 8 | | 1080p bober100 Скачать
2 | 0

28-11-2019 20:33  


Отключить вcю реклaмy на сайте, в т.ч. и в плеере онлайн просмотра!

    Дорогой пользователь! Огромная просьба, поблагодарите релизера, оцените раздачу и оставьте свои комментарий, если Вы скачали Детективный синдром через торрент бесплатно!!
    Комментировать посты могут только пользователи прошедшие не сложную регистрацию
    Показать сообщения:    


    Детективный синдром через торрент
    Скачать бесплатно Детективный синдром
    Детективный синдром скачать торрент
    Детективный синдром смотреть онлайн
    Cкачать фильм Детективный синдром бесплатно
    Детективный синдром скачать торрент в хорошем качестве
    Детективный синдром смотреть онлайн бесплатно в хорошем качестве
    Вы не можете начинать темы
    Вы не можете отвечать на сообщения
    Вы не можете редактировать свои сообщения
    Вы не можете удалять свои сообщения
    Вы не можете голосовать в опросах
    Вы не можете прикреплять файлы к сообщениям
    Вы можете скачивать файлы
    Детективный синдром / Сезон: 1 / Серии: 1-8 из 8 [2019, Драма, WEB-DLRip] смотреть онлайн, скачать торрент picoco.icu