Достать ножи: Стеклянная луковица

MVO

Добыча

Дубляж

Уэнсдэй

1 сезон

Тор

Дубляж

13 клиническая

1 сезон

Жестокая ночь

MVO

Одни из нас

1 сезон

Deluxe

pack

Рекомендуем

30

Пиратка

ВАЖНО

ВАЖНО

Ghostwire

Пиратка

jed

RePack

nioh2

RePack

RDR2

RePack

NEED FOR SPEED™ PAYBACK

RePack

скачать торрент

Кинопоиск HD

Острые козырьки 6 сезон

6 сезон

FAR CRY 6

RePack

скачать торрент

Лицензия

скачать торрент

MVO

1

1 сезон

скачать торрент

1 сезон

скачать торрент

Лицензия

  

Город воров / The Town (Бен Аффлек) [2010, США, Триллер, драма, криминал, BDRip - HEVC 1080p 10 bit 60 FPS, DVO]

Город воров через торрент pb.wtf

Размер: 5.48 GB | Добавлен: 3 мес. 29 д. назад | Торрент скачан:73 раза
Смотреть онлайн | Скачать | Поддержите нас   

08-10-2022 18:50 Город воров Скачать торрент  

The Town
«Добро пожаловать в криминальную столицу Америки»
Информация Описание:
Название: Город воров
Оригинальное название: The Town
Год выхода: 2010
Жанр: Триллер, драма, криминал
Режиссер: Бен Аффлек
В ролях: Бен Аффлек, Ребекка Холл, Джон Хэмм, Джереми Реннер, Блейк Лайвли, Оуэн Бурк, Титус Уэлливер, Пит Постлетуэйт, Крис Купер
Описание: В Бостоне каждый год происходит более 300 ограблений банков. И большинство профессионалов, специализирующихся в этой области, живут в округе под названием Чарльстон общей площадью одна квадратная миля. Даг МакРэй — один из них. В отличие от большинства у Дага был шанс на успех, шанс на то, чтобы не идти по криминальному пути своего отца. Однако вместо этого он стал фактическим лидером группы безжалостных грабителей банков, которые гордятся тем, что берут все, что хотят, и выходят сухими из воды.


Страна: США
Студия: Warner Bros., Legendary Entertainment, GK Films
Продолжительность: 02:30:34
Перевод: Профессиональный (двухголосый закадровый) | Кубик в кубе
Субтитры: русские | Voronine
Навигация по главам: есть
Информация о файле:
Качество: BDRip - HEVC 1080p Rip by DD2D3
Формат: MKV
Видео: V_MPEGH/ISO/HEVC; 1920x800 (2.40:1); 3601 Kbps; 60 fps; 0,039 bpp
Аудио: русский; DTS; 1509 Kbps; CBR; 6 ch; 16 bit ||
Доп. информация: Расширенная версия

Общее
Уникальный идентификатор : 212702475300340399584714970542069493857 (0xA00501B354B0CF9696ADFA71CC6BB061)
Полное имя : E:\The Town (2010) [Extended Cut] BDRip - HEVC 1080p 10 bit 60 FPS.mkv
Формат : Matroska
Версия формата : Version 2
Размер файла : 5,48 Гбайт
Продолжительность : 2 ч. 30 м.
Общий поток : 5 215 Кбит/сек
Название фильма : Rip by from DD2D3
Дата кодирования : UTC 2022-10-08 18:11:06
Программа кодирования : mkvmerge v7.8.0 ('River Man') 32bit built on Apr 3 2015 12:11:22
Библиотека кодирования : libebml v1.3.1 + libmatroska v1.4.2
Attachments : poster

Видео
Идентификатор : 1
Формат : HEVC
Формат/Информация : High Efficiency Video Coding
Профиль формата : Main [email protected]@Main
Идентификатор кодека : V_MPEGH/ISO/HEVC
Продолжительность : 2 ч. 30 м.
Битрейт : 3 602 Кбит/сек
Ширина : 1 920 пикселей
Высота : 800 пикселей
Соотношение сторон : 2,40:1
Режим частоты кадров : Постоянный
Частота кадров : 60,000 кадров/сек
Цветовое пространство : YUV
Субдискретизация насыщенности : 4:2:0
Битовая глубина : 10 бит
Бит/(Пиксели*Кадры) : 0.039
Размер потока : 3,79 Гбайт (69%)
Библиотека кодирования : x265 3.5+20-17839cc0d:[Windows][GCC 11.2.0][64 bit] 10bit
Настройки программы : cpuid=1111039 / frame-threads=2 / numa-pools=4 / wpp / no-pmode / no-pme / no-psnr / no-ssim / log-level=2 / input-csp=1 / input-res=1920x800 / interlace=0 / total-frames=541980 / level-idc=41 / high-tier=1 / uhd-bd=0 / ref=5 / no-allow-non-conformance / no-repeat-headers / annexb / no-aud / no-eob / no-eos / no-hrd / info / hash=0 / no-temporal-layers / open-gop / min-keyint=5 / keyint=240 / gop-lookahead=0 / bframes=4 / b-adapt=2 / b-pyramid / bframe-bias=0 / rc-lookahead=20 / lookahead-slices=5 / scenecut=40 / no-hist-scenecut / radl=0 / no-splice / no-intra-refresh / ctu=64 / min-cu-size=8 / no-rect / no-amp / max-tu-size=8 / tu-inter-depth=1 / tu-intra-depth=1 / limit-tu=0 / rdoq-level=0 / dynamic-rd=0.00 / no-ssim-rd / signhide / no-tskip / nr-intra=0 / nr-inter=0 / no-constrained-intra / strong-intra-smoothing / max-merge=3 / limit-refs=1 / no-limit-modes / me=1 / subme=5 / merange=57 / temporal-mvp / no-frame-dup / no-hme / weightp / no-weightb / no-analyze-src-pics / deblock=0:0 / sao / no-sao-non-deblock / rd=3 / selective-sao=4 / early-skip / rskip / no-fast-intra / no-tskip-fast / no-cu-lossless / b-intra / no-splitrd-skip / rdpenalty=0 / psy-rd=2.00 / psy-rdoq=0.00 / no-rd-refine / no-lossless / cbqpoffs=-2 / crqpoffs=-2 / rc=abr / bitrate=3750 / qcomp=0.70 / qpstep=4 / stats-write=0 / stats-read=0 / ipratio=1.38 / pbratio=1.28 / aq-mode=2 / aq-strength=1.00 / cutree / zone-count=0 / no-strict-cbr / qg-size=32 / no-rc-grain / qpmax=69 / qpmin=0 / no-const-vbv / sar=1 / overscan=0 / videoformat=5 / range=0 / colorprim=1 / transfer=1 / colormatrix=1 / chromaloc=0 / display-window=0 / cll=0,0 / min-luma=0 / max-luma=1023 / log2-max-poc-lsb=8 / vui-timing-info / vui-hrd-info / slices=1 / no-opt-qp-pps / no-opt-ref-list-length-pps / no-multi-pass-opt-rps / scenecut-bias=0.05 / hist-threshold=0.03 / no-opt-cu-delta-qp / no-aq-motion / no-hdr10 / no-hdr10-opt / no-dhdr10-opt / no-idr-recovery-sei / analysis-reuse-level=0 / analysis-save-reuse-level=0 / analysis-load-reuse-level=0 / scale-factor=0 / refine-intra=0 / refine-inter=0 / refine-mv=1 / refine-ctu-distortion=0 / no-limit-sao / ctu-info=0 / no-lowpass-dct / refine-analysis-type=0 / copy-pic=1 / max-ausize-factor=1.0 / no-dynamic-refine / no-single-sei / no-hevc-aq / no-svt / no-field / qp-adaptation-range=1.00 / scenecut-aware-qp=0conformance-window-offsets / right=0 / bottom=0 / decoder-max-rate=0 / no-vbv-live-multi-pass
Default : Да
Forced : Нет
Цветовой диапазон : Limited
Основные цвета : BT.709
Характеристики трансфера : BT.709
Коэффициенты матрицы : BT.709

Аудио
Идентификатор : 2
Формат : DTS
Формат/Информация : Digital Theater Systems
Идентификатор кодека : A_DTS
Продолжительность : 2 ч. 30 м.
Вид битрейта : Постоянный
Битрейт : 1 509 Кбит/сек
Каналы : 6 каналов
Channel layout : C L R Ls Rs LFE
Частота : 48,0 КГц
Частота кадров : 93,750 кадра/сек (512 SPF)
Битовая глубина : 16 бит
Метод сжатия : С потерями
Размер потока : 1,59 Гбайт (29%)
Заголовок : Двухголосое [Кубик в кубе]
Язык : Russian
Default : Да
Forced : Да

Текст
Идентификатор : 3
Формат : UTF-8
Идентификатор кодека : S_TEXT/UTF8
Идентификатор кодека/Информация : UTF-8 Plain Text
Заголовок : full Voronine
Язык : Russian
Default : Да
Forced : Да

Меню
00:00:00.000 : en:00:00:00.000
00:10:53.111 : en:00:10:53.111
00:23:54.433 : en:00:23:54.433
00:44:12.066 : en:00:44:12.066
00:54:36.690 : en:00:54:36.690
01:06:36.367 : en:01:06:36.367
01:14:39.266 : en:01:14:39.266
01:27:29.161 : en:01:27:29.161
01:36:55.393 : en:01:36:55.393
01:53:14.246 : en:01:53:14.246
02:03:03.793 : en:02:03:03.793
02:14:10.751 : en:02:14:10.751
02:23:16.379 : en:02:23:16.379




Скачать Город воров через торрент https://st-kp-yandex-net.translate.goog/images/film_iphone/iphone360_462732.jpg Скачать, смотреть онлайн Город воров бесплантно в хорошем качестве Описание: Название: Город воров Оригинальное название: The Town Год выхода: 2010 Жанр: Триллер, драма, криминал Режиссер: Бен Аффлек В ... 10 10 2
Торрент: Зарегистрирован [2022-10-08 18:50] · скачан: 73 раз
Статус: # сомнительно
Размер: 5.48 GB
Как cкачать? Как скачать Город воров через торрент | UTorrent

% Раздел Тема Автор DL S | L
Ultra HD (UHD: 2K, 4K, 8K) [ 47.9 GB ] Город воров / The Town | Лицензия EUR | 2160p bober100 Скачать
1 | 0
T Релизы по Парсеру [Игры, Сериалы и Фильмы и другое...] [ 16.41 GB ] Город воров / The Town | AVO | 1080p -Lexx- Скачать
1 | 0
Фильмы с авторской озвучкой [ 1.46 GB ] Город воров / The Town | AVO | BDRip Liloo_Foofyga Скачать
1 | 0
Фильмы [HD 720p, 1080p] (Хороший звук DUB, MVO) [ 5.8 GB ] Город воров / The Town | Дубляж + Оригинал | 720p, Дубляж + Оригинал [email protected] Скачать
1 | 0
Фильмы 2010 [ 2.06 GB ] Город воров / Town, The | | HDRip Venxxx Скачать
1 | 0
Фильмы 2010 [ 1.6 GB ] Город воров / The Town | | HDRip azagoth_666 Скачать
1 | 0
Фильмы [HD 720p, 1080p] (Хороший звук DUB, MVO) [ 5.72 GB ] Город воров / The Town | | 720p L_E_X Скачать
1 | 0

28-11-2019 20:33  


Отключить вcю реклaмy на сайте, в т.ч. и в плеере онлайн просмотра!

    Дорогой пользователь! Огромная просьба, поблагодарите релизера, оцените раздачу и оставьте свои комментарий, если Вы скачали Город воров через торрент бесплатно!!
    Комментировать посты могут только пользователи прошедшие не сложную регистрацию
    Показать сообщения:    


    Город воров через торрент
    Скачать бесплатно Город воров
    Город воров скачать торрент
    Город воров смотреть онлайн
    Cкачать фильм Город воров бесплатно
    Город воров скачать торрент в хорошем качестве
    Город воров смотреть онлайн бесплатно в хорошем качестве
    Вы не можете начинать темы
    Вы не можете отвечать на сообщения
    Вы не можете редактировать свои сообщения
    Вы не можете удалять свои сообщения
    Вы не можете голосовать в опросах
    Вы не можете прикреплять файлы к сообщениям
    Вы можете скачивать файлы
    Город воров / The Town [2010, США, Триллер, драма, криминал, BDRip - HEVC 1080p 10 bit 60 FPS, DVO] смотреть онлайн, скачать торрент picoco.icu