Достать ножи: Стеклянная луковица

MVO

Добыча

Дубляж

Уэнсдэй

1 сезон

Тор

Дубляж

13 клиническая

1 сезон

Жестокая ночь

MVO

Одни из нас

1 сезон

Deluxe

pack

Рекомендуем

30

Пиратка

ВАЖНО

ВАЖНО

Ghostwire

Пиратка

jed

RePack

nioh2

RePack

RDR2

RePack

NEED FOR SPEED™ PAYBACK

RePack

скачать торрент

Кинопоиск HD

Острые козырьки 6 сезон

6 сезон

FAR CRY 6

RePack

скачать торрент

Лицензия

скачать торрент

MVO

1

1 сезон

скачать торрент

1 сезон

скачать торрент

Лицензия

  

Вышка / Fall (Скотт Манн) [2022, Триллер, BDRip 1080p] Дубляж [iTunes]

Вышка через торрент pb.wtf

Раздают: 7 [ 29 KB/s ]
Размер: 11.01 GB | Добавлен: 3 мес. 23 д. назад | Торрент скачан:256 раз
Смотреть онлайн | Скачать | Поддержите нас   

10-10-2022 17:51 Вышка Скачать торрент  

Вышка
Fall

Год выпуска: 2022
Страна: Великобритания, США
Студия: Capstone Studios, Tea Shop & Film Company
Жанр: Триллер
Продолжительность: 01:47:20
Перевод: Дублированный | iTunes
Субтитры: отсутствуют

Режиссер: Скотт Манн

rating

В ролях: Грэйс Фултон, Вирджиния Гарднер, Джеффри Дин Морган, Мэйсон Гудинг, Джулия Пэйс Митчелл, Джаспер Коул

Описание: Бекки всегда любила экстрим, но после гибели мужа во время скалолазания она завязала с опасным увлечением. Когда ее подруга Хантер предлагает Бекки покорить вместе с ней радиомачту, героиня решает в последний раз взглянуть страху в лицо. Но на 600-метровой высоте что-то идет не так…

Качество: BDRip 1080p
Формат: MKV

Видео: MPEG-4 AVC, 1920x960, 13.7 Mbit/s, 23.976 fps
Аудио #01: 48 kHz, AC3, 5.1, 384 Kbps | Дублированный | iTunes | RUS |
Аудио #02: 48 kHz, AC3, 5.1, 640 Kbps | Оригинал | ENG |
скриншот  скриншот  скриншот  скриншот  

Complete name :
Vyishka.2022.BDRip.1080p.ELEKTRI4KA.UNIONGANG.mkv
Format : Matroska
Format version : Version 4
File size : 11.0 GiB
Duration : 1 h 47 min
Overall bit rate : 14.7 Mb/s
Movie name : Vyishka.2022.BDRip.1080p.ELEKTRI4KA.UNIONGANG.
Encoded date : UTC 2022-10-10 17:29:59
Writing application : mkvmerge v8.3.0 ('Over the Horizon') 32bit
Writing library : libebml v1.3.1 + libmatroska v1.4.2

Video
ID : 1
Format : AVC
Format/Info : Advanced Video Codec
Format profile : [email protected]
Format settings : CABAC / 4 Ref Frames
Format settings, CABAC : Yes
Format settings, Reference frames : 4 frames
Codec ID : V_MPEG4/ISO/AVC
Duration : 1 h 47 min
Bit rate : 13.7 Mb/s
Width : 1 920 pixels
Height : 960 pixels
Display aspect ratio : 2.000
Frame rate mode : Constant
Frame rate : 23.976 (24000/1001) FPS
Color space : YUV
Chroma subsampling : 4:2:0
Bit depth : 8 bits
Scan type : Progressive
Bits/(Pixel*Frame) : 0.309
Stream size : 10.2 GiB (93%)
Writing library : x264 core 157 r2938 2b00a84 [email protected] Mod
Encoding settings : cabac=1 / ref=4 / deblock=1:-3:-3 / analyse=0x3:0x133 / me=umh / subme=10 / psy=1 / psy_rd=1.05:0.00 / mixed_ref=1 / me_range=32 / chroma_me=1 / trellis=2 / 8x8dct=1 / cqm=0 / deadzone=21,11 / fast_pskip=0 / chroma_qp_offset=-2 / threads=12 / lookahead_threads=2 / sliced_threads=0 / nr=0 / decimate=0 / interlaced=0 / bluray_compat=0 / constrained_intra=0 / bframes=8 / b_pyramid=2 / b_adapt=2 / b_bias=0 / direct=3 / weightb=1 / open_gop=0 / weightp=2 / keyint=250 / keyint_min=24 / scenecut=40 / intra_refresh=0 / rc_lookahead=250 / rc=crf / mbtree=0 / crf=16.8 / qcomp=0.60 / qpmin=0 / qpmax=69 / qpstep=4 / vbv_maxrate=62500 / vbv_bufsize=78125 / crf_max=0.0 / nal_hrd=none / filler=0 / ip_ratio=1.30 / pb_ratio=1.20 / aq=3:0.80
Language : English
Default : Yes
Forced : No
Color range : Limited
Color primaries : BT.709
Matrix coefficients : BT.709

Audio #1
ID : 2
Format : AC-3
Format/Info : Audio Coding 3
Commercial name : Dolby Digital
Codec ID : A_AC3
Duration : 1 h 47 min
Bit rate mode : Constant
Bit rate : 384 kb/s
Channel(s) : 6 channels
Channel layout : L R C LFE Ls Rs
Sampling rate : 48.0 kHz
Frame rate : 31.250 FPS (1536 SPF)
Compression mode : Lossy
Stream size : 295 MiB (3%)
Title : Дубляж (iTunes)
Language : Russian
Service kind : Complete Main
Default : Yes
Forced : Yes

Audio #2
ID : 3
Format : AC-3
Format/Info : Audio Coding 3
Commercial name : Dolby Digital
Codec ID : A_AC3
Duration : 1 h 47 min
Bit rate mode : Constant
Bit rate : 640 kb/s
Channel(s) : 6 channels
Channel layout : L R C LFE Ls Rs
Sampling rate : 48.0 kHz
Frame rate : 31.250 FPS (1536 SPF)
Compression mode : Lossy
Stream size : 491 MiB (4%)
Title : Original
Language : English
Service kind : Complete Main
Default : No
Forced : No

Menu
00:00:00.000 : en:Chapter 01
00:04:34.274 : en:Chapter 02
00:12:39.676 : en:Chapter 03
00:21:03.262 : en:Chapter 04
00:25:30.529 : en:Chapter 05
00:32:07.926 : en:Chapter 06
00:41:00.458 : en:Chapter 07
00:45:15.713 : en:Chapter 08
00:55:13.310 : en:Chapter 09
01:02:15.732 : en:Chapter 10
01:11:24.280 : en:Chapter 11
01:18:23.949 : en:Chapter 12
01:24:39.074 : en:Chapter 13
01:29:03.338 : en:Chapter 14
01:34:21.656 : en:Chapter 15
01:42:25.139 : en:Chapter 16




Скачать Вышка через торрент https://i120.fastpic.org/big/2022/0905/b7/398b0c8a739df812a00373693b4421b7.jpg Скачать, смотреть онлайн Вышка бесплантно в хорошем качестве Описание: Бекки всегда любила экстрим, но после гибели мужа во время скалолазания она завязала с опасным увлечением. Когда ее подруга ... 10 10 14
Info! Золотая раздача, скачанное не засчитывается.
Торрент: Зарегистрирован [2022-10-10 17:51] · скачан: 256 раз
Статус: √ проверено
Размер: 11.01 GB
Как cкачать? Как скачать Вышка через торрент | UTorrent

% Раздел Тема Автор DL S | L
Фильмы 2022-2023 [DVDrip, WEB-DLRip, HDrip] (DUB, MVO) [ 1.46 GB ] Вышка / Fall | iTunes | HDRip bober100 Скачать
12 | 0
Фильмы (WEB-DL 720p, 1080p) [ 5.57 GB ] Вышка / Fall | Jaskier | 1080p bober100 Скачать
12 | 2
Фильмы 2022-2023 [DVDrip, WEB-DLRip, HDrip] (DUB, MVO) [ 745 MB ] Вышка / Fall | iTunes | HDRip bober100 Скачать
3 | 1
Фильмы 2022-2023 [DVDrip, WEB-DLRip, HDrip] (DUB, MVO) [ 2.28 GB ] Вышка / Fall | iTunes | HDRip-AVC bober100 Скачать
4 | 0

28-11-2019 20:33  


Отключить вcю реклaмy на сайте, в т.ч. и в плеере онлайн просмотра!

10-10-2022 19:44 Вышка Скачать торрент  

по сути фильм прикольный, но курицы много не додумывают и могли спуститься по тем условиям в часы...максимум сутки. и как убого они делают вышки.



11-10-2022 05:48 Вышка Скачать торрент  

Хороший фильм, держит в напряжении. Советую посмотреть



    Дорогой пользователь! Огромная просьба, поблагодарите релизера, оцените раздачу и оставьте свои комментарий, если Вы скачали Вышка через торрент бесплатно!!
    Комментировать посты могут только пользователи прошедшие не сложную регистрацию
    Показать сообщения:    


    Вышка через торрент
    Скачать бесплатно Вышка
    Вышка скачать торрент
    Вышка смотреть онлайн
    Cкачать фильм Вышка бесплатно
    Вышка скачать торрент в хорошем качестве
    Вышка смотреть онлайн бесплатно в хорошем качестве
    Вы не можете начинать темы
    Вы не можете отвечать на сообщения
    Вы не можете редактировать свои сообщения
    Вы не можете удалять свои сообщения
    Вы не можете голосовать в опросах
    Вы не можете прикреплять файлы к сообщениям
    Вы можете скачивать файлы
    Вышка / Fall [2022, Триллер, BDRip 1080p] Дубляж [iTunes] смотреть онлайн, скачать торрент picoco.icu