Достать ножи: Стеклянная луковица

MVO

Добыча

Дубляж

Уэнсдэй

1 сезон

Тор

Дубляж

13 клиническая

1 сезон

Жестокая ночь

MVO

Одни из нас

1 сезон

Deluxe

pack

Рекомендуем

30

Пиратка

ВАЖНО

ВАЖНО

Ghostwire

Пиратка

jed

RePack

nioh2

RePack

RDR2

RePack

NEED FOR SPEED™ PAYBACK

RePack

скачать торрент

Кинопоиск HD

Острые козырьки 6 сезон

6 сезон

FAR CRY 6

RePack

скачать торрент

Лицензия

скачать торрент

MVO

1

1 сезон

скачать торрент

1 сезон

скачать торрент

Лицензия

  

Тела, тела, тела / Bodies Bodies Bodies (Халина Рейн) [2022, Комедия, ужасы, триллер, BDRip 1080p] MVO [Jaskier]

Тела, тела, тела через торрент pb.wtf

Размер: 13.03 GB | Добавлен: 3 мес. 16 д. назад | Торрент скачан:105 раз
Смотреть онлайн | Скачать | Поддержите нас   

11-10-2022 06:57 Тела, тела, тела Скачать торрент  

Тела, тела, тела
Bodies Bodies Bodies

Год выпуска: 2022
Страна: США
Выпущено: 2AM, A24
Жанр: Комедия, ужасы, триллер
Продолжительность: 01:37:42
Перевод: Профессиональный (многоголосый) | Jaskier
Субтитры: Английские

Режиссер: Халина Рейн

rating

В ролях: Амандла Стенберг, Мария Бакалова, Рэйчел Сеннотт, Чейз Суи Уондерс, Пит Дэвидсон, Миха’ла Херролд, Ли Пейс, Коннер О’Мэлли

Описание: Компания модной молодежи отправляется потусить в доме богатенького приятеля. Веселая вечеринка оборачивается кошмаром, когда молодые люди обнаруживают, что кто-то начал сокращать их количество. Нарастают напряжение и каскад взаимных подозрений, всплывают старые обиды.

Качество: BDRip 1080p
Формат: MKV

Видео: MPEG-4 AVC, 18,2 Mбит/с, 1844x804 at 23.976 fps
Аудио #1: AC3, 2 ch, 192 Кбит/с | RUS |
Аудио #2: DTS, 6 ch, 1509 Кбит/с | ENG |
скриншот  скриншот  скриншот  скриншот  

General
Unique ID : 101584815238773080473395268183495980112 (0x4C6C8614E53E74FE882B0520030EB450)
Complete name : E:TorrentsBodies.Bodies.Bodies.2022.BDRip.1080p_от New-Team_JNS82.mkv
Format : Matroska
Format version : Version 4
File size : 13.0 GiB
Duration : 1 h 37 min
Overall bit rate : 19.1 Mb/s
Movie name : Bodies.Bodies.Bodies.2022.BDRip.1080p_от New-Team_JNS82
Encoded date : UTC 2022-10-10 19:29:07
Writing application : mkvmerge v59.0.0 ('Shining Star') 64-bit
Writing library : libebml v1.4.2 + libmatroska v1.6.4

Video
ID : 1
Format : AVC
Format/Info : Advanced Video Codec
Format profile : [email protected]
Format settings : CABAC / 5 Ref Frames
Format settings, CABAC : Yes
Format settings, Reference : 5 frames
Codec ID : V_MPEG4/ISO/AVC
Duration : 1 h 33 min
Bit rate : 18.2 Mb/s
Width : 1 844 pixels
Height : 804 pixels
Display aspect ratio : 2.25:1
Frame rate mode : Constant
Frame rate : 23.976 (24000/1001) FPS
Color space : YUV
Chroma subsampling : 4:2:0
Bit depth : 8 bits
Scan type : Progressive
Bits/(Pixel*Frame) : 0.511
Stream size : 11.9 GiB (91%)
Writing library : x264 core 157 r2938 2b00a84 [email protected] Mod
Encoding settings : cabac=1 / ref=5 / deblock=1:-3:-3 / analyse=0x3:0x133 / me=umh / subme=10 / psy=1 / psy_rd=1.05:0.00 / mixed_ref=1 / me_range=32 / chroma_me=1 / trellis=2 / 8x8dct=1 / cqm=0 / deadzone=21,11 / fast_pskip=0 / chroma_qp_offset=-2 / threads=12 / lookahead_threads=2 / sliced_threads=0 / nr=0 / decimate=0 / interlaced=0 / bluray_compat=0 / constrained_intra=0 / bframes=8 / b_pyramid=2 / b_adapt=2 / b_bias=0 / direct=3 / weightb=1 / open_gop=0 / weightp=2 / keyint=250 / keyint_min=24 / scenecut=40 / intra_refresh=0 / rc_lookahead=250 / rc=crf / mbtree=0 / crf=16.8 / qcomp=0.60 / qpmin=0 / qpmax=69 / qpstep=4 / vbv_maxrate=62500 / vbv_bufsize=78125 / crf_max=0.0 / nal_hrd=none / filler=0 / ip_ratio=1.30 / pb_ratio=1.20 / aq=3:0.80
Language : English
Default : Yes
Forced : No
Color range : Limited
Color primaries : BT.709
Matrix coefficients : BT.709

Audio #1
ID : 2
Format : AC-3
Format/Info : Audio Coding 3
Commercial name : Dolby Digital
Codec ID : A_AC3
Duration : 1 h 37 min
Bit rate mode : Constant
Bit rate : 192 kb/s
Channel(s) : 2 channels
Channel layout : L R
Sampling rate : 48.0 kHz
Frame rate : 31.250 FPS (1536 SPF)
Compression mode : Lossy
Stream size : 134 MiB (1%)
Title : MVO - Jaskier
Language : Russian
Service kind : Complete Main
Default : Yes
Forced : No

Audio #2
ID : 3
Format : DTS
Format/Info : Digital Theater Systems
Codec ID : A_DTS
Duration : 1 h 33 min
Bit rate mode : Constant
Bit rate : 1 509 kb/s
Channel(s) : 6 channels
Channel layout : C L R Ls Rs LFE
Sampling rate : 48.0 kHz
Frame rate : 93.750 FPS (512 SPF)
Bit depth : 24 bits
Compression mode : Lossy
Stream size : 1 013 MiB (8%)
Language : English
Default : No
Forced : No

Text #1
ID : 4
Format : UTF-8
Codec ID : S_TEXT/UTF8
Codec ID/Info : UTF-8 Plain Text
Duration : 1 h 27 min
Bit rate : 61 b/s
Count of elements : 1194
Stream size : 39.3 KiB (0%)
Language : English
Default : No
Forced : No

Text #2
ID : 5
Format : UTF-8
Codec ID : S_TEXT/UTF8
Codec ID/Info : UTF-8 Plain Text
Duration : 1 h 33 min
Bit rate : 66 b/s
Count of elements : 1378
Stream size : 45.9 KiB (0%)
Title : SDH
Language : English
Default : No
Forced : No

Menu
00:00:00.000 : Chapter 01
00:04:10.375 : Chapter 02
00:10:30.463 : Chapter 03
00:16:24.859 : Chapter 04
00:21:26.619 : Chapter 05
00:29:11.750 : Chapter 06
00:33:00.145 : Chapter 07
00:36:57.090 : Chapter 08
00:40:45.818 : Chapter 09
00:44:40.303 : Chapter 10
00:51:14.154 : Chapter 11
00:58:23.125 : Chapter 12
01:04:50.136 : Chapter 13
01:08:45.121 : Chapter 14
01:18:24.450 : Chapter 15
01:23:01.935 : Chapter 16




Скачать Тела, тела, тела через торрент https://st-kp-yandex-net.translate.goog/images/film_iphone/iphone360_4496039.jpg Скачать, смотреть онлайн Тела, тела, тела бесплантно в хорошем качестве Описание: Компания модной молодежи отправляется потусить в доме богатенького приятеля. Веселая вечеринка оборачивается кошмаром, когда ... 10 10 9
Торрент: Зарегистрирован [2022-10-11 06:57] · скачан: 105 раз
Статус: √ проверено
Размер: 13.03 GB
Как cкачать? Как скачать Тела, тела, тела через торрент | UTorrent

% Раздел Тема Автор DL S | L
Фильмы 2022-2023 [DVDrip, WEB-DLRip, HDrip] (DUB, MVO) [ 1.42 GB ] Тела, тела, тела / Bodies Bodies Bodies | Jaskier | DLRip-AVC bober100 Скачать
1 | 0

28-11-2019 20:33  


Отключить вcю реклaмy на сайте, в т.ч. и в плеере онлайн просмотра!

    Дорогой пользователь! Огромная просьба, поблагодарите релизера, оцените раздачу и оставьте свои комментарий, если Вы скачали Тела, тела, тела через торрент бесплатно!!
    Комментировать посты могут только пользователи прошедшие не сложную регистрацию
    Показать сообщения:    


    Тела, тела, тела через торрент
    Скачать бесплатно Тела, тела, тела
    Тела, тела, тела скачать торрент
    Тела, тела, тела смотреть онлайн
    Cкачать фильм Тела, тела, тела бесплатно
    Тела, тела, тела скачать торрент в хорошем качестве
    Тела, тела, тела смотреть онлайн бесплатно в хорошем качестве
    Вы не можете начинать темы
    Вы не можете отвечать на сообщения
    Вы не можете редактировать свои сообщения
    Вы не можете удалять свои сообщения
    Вы не можете голосовать в опросах
    Вы не можете прикреплять файлы к сообщениям
    Вы можете скачивать файлы
    Тела, тела, тела / Bodies Bodies Bodies [2022, Комедия, ужасы, триллер, BDRip 1080p] MVO [Jaskier] смотреть онлайн, скачать торрент picoco.icu