Достать ножи: Стеклянная луковица

MVO

Добыча

Дубляж

Уэнсдэй

1 сезон

Тор

Дубляж

13 клиническая

1 сезон

Жестокая ночь

MVO

Одни из нас

1 сезон

Deluxe

pack

Рекомендуем

30

Пиратка

ВАЖНО

ВАЖНО

Ghostwire

Пиратка

jed

RePack

nioh2

RePack

RDR2

RePack

NEED FOR SPEED™ PAYBACK

RePack

скачать торрент

Кинопоиск HD

Острые козырьки 6 сезон

6 сезон

FAR CRY 6

RePack

скачать торрент

Лицензия

скачать торрент

MVO

1

1 сезон

скачать торрент

1 сезон

скачать торрент

Лицензия

  

Видеть / See / Сезон: 3 / Серии: 1-8 из 8 (Френсис Лоуренс, Андерс Энгстрем, Стивен Серджик) [2022, Фантастика, боевик, драма, WEBRip 720p] Дубляж [Пифагор / Apple TV+]

Видеть через торрент pb.wtf

Раздают: 2 [ 4 KB/s ] Качают: 1 [ 0 KB/s ]
Размер: 12.64 GB | Добавлен: 3 мес. 16 д. назад | Торрент скачан:115 раз
Смотреть онлайн | Скачать | Поддержите нас   

14-10-2022 09:30 Видеть Скачать торрент  

Видеть | See
«...»
Год выпуска: 2022
Страна: США
Выпущено: Chernin Entertainment, Endeavor Content
Жанр: Фантастика, боевик, драма
Продолжительность: ~ 01:00:00
Перевод: Дублированный | Пифагор по заказу Apple TV+
Субтитры: Русские (Forced, Full, SDH), английские (Full, SDH)

Режиссёр: Фрэнсис Лоуренс, Андерс Энгстрем, Стивен Серджик, Фред Туа, Салли Ричардсон-Уитфилд

rating

В ролях: Джейсон Момоа (Jason Momoa), Сильвия Хукс (Sylvia Hoeks), Хера Хильмар (Hera Hilmar), Кристиан Камарго (Christian Camargo), Арчи Мадекве (Archie Madekwe), Неста Купер (Nesta Cooper), Ядира Гевара-Прип (Yadira Guevara-Prip), Элфри Вудард (Alfre Woodard), Джош Блэкер (Josh Blacker), Дэйв Батиста (Dave Bautista), Иден Эпштейн (Eden Epstein), Кристиан Слоун (Christian Sloan)

Описание: В далёком будущем человеческая раса полностью лишилась зрения. Чтобы выжить, людям пришлось найти новый способ сосуществовать, строить и добывать пищу. Всё меняется, когда в семье бесстрашного воина Бабы Восса рождаются зрячие близнецы. Их появление рискует нарушить хрупкий баланс нового мира и ввергнуть успокоившуюся цивилизацию в хаос.

Качество: WEBRip 720p
Формат: MKV

Видео: MPEG-4 AVC, 1392x660 (2,109), 23.976 fps, ~2784 kbps
Аудио №1: E-AC3 ATMOS, 6 ch, 48 kHz, 768 kbps
Аудио №2: E-AC3 ATMOS, 6 ch, 48 kHz, 768 kbps
скриншот  скриншот  скриншот  скриншот  

Общее
Уникальный идентификатор : 185827732716728911901123986332732720206 (0x8BCD1E97232C1F78B229AA20BDDD844E)
Полное имя : D:See.S03.720p.Pifagor\See.S03E01.mkv
Формат : Matroska
Версия формата : Version 4
Размер файла : 1,75 Гбайт
Продолжительность : 58 м. 1 с.
Общий поток : 4 323 Кбит/сек
Название фильма : See S03E01 [Heavy Hangs the Head] - EniaHD
Дата кодирования : UTC 2022-08-26 14:32:58
Программа кодирования : mkvmerge v9.1.0 ('Little Earthquakes') 32bit
Библиотека кодирования : libebml v1.3.3 + libmatroska v1.4.4

Видео
Идентификатор : 7
Формат : AVC
Формат/Информация : Advanced Video Codec
Профиль формата : [email protected]
Настройки формата : CABAC / 5 Ref Frames
Параметр CABAC формата : Да
Параметр RefFrames формата : 5 кадров
Идентификатор кодека : V_MPEG4/ISO/AVC
Продолжительность : 58 м. 1 с.
Битрейт : 2 784 Кбит/сек
Ширина : 1 392 пикселя
Высота : 660 пикселей
Соотношение сторон : 2,109
Режим частоты кадров : Постоянный
Частота кадров : 23,976 (24000/1001) кадра/сек
Цветовое пространство : YUV
Субдискретизация насыщенности : 4:2:0
Битовая глубина : 8 бит
Тип развёртки : Прогрессивная
Бит/(Пиксели*Кадры) : 0.126
Размер потока : 1,13 Гбайт (64%)
Язык : English
Default : Да
Forced : Нет
Цветовой диапазон : Limited
Основные цвета : BT.709
Характеристики трансфера : BT.709
Коэффициенты матрицы : BT.709

Аудио #1
Идентификатор : 1
Формат : E-AC-3 JOC
Формат/Информация : Enhanced AC-3 with Joint Object Coding
Коммерческое название : Dolby Digital Plus with Dolby Atmos
Идентификатор кодека : A_EAC3
Продолжительность : 58 м. 1 с.
Вид битрейта : Постоянный
Битрейт : 768 Кбит/сек
Каналы : 6 каналов
Channel layout : L R C LFE Ls Rs
Частота : 48,0 КГц
Частота кадров : 31,250 кадров/сек (1536 SPF)
Метод сжатия : С потерями
Размер потока : 319 Мбайт (18%)
Язык : Russian
Service kind : Complete Main
Default : Да
Forced : Нет
Complexity index : 16
Number of dynamic objects : 15
Bed channel count : 1 канал
Bed channel configuration : LFE

Аудио #2
Идентификатор : 2
Формат : E-AC-3 JOC
Формат/Информация : Enhanced AC-3 with Joint Object Coding
Коммерческое название : Dolby Digital Plus with Dolby Atmos
Идентификатор кодека : A_EAC3
Продолжительность : 58 м. 1 с.
Вид битрейта : Постоянный
Битрейт : 768 Кбит/сек
Каналы : 6 каналов
Channel layout : L R C LFE Ls Rs
Частота : 48,0 КГц
Частота кадров : 31,250 кадров/сек (1536 SPF)
Метод сжатия : С потерями
Размер потока : 319 Мбайт (18%)
Язык : English
Service kind : Complete Main
Default : Нет
Forced : Нет
Complexity index : 16
Number of dynamic objects : 15
Bed channel count : 1 канал
Bed channel configuration : LFE

Текст #1
Идентификатор : 3
Формат : UTF-8
Идентификатор кодека : S_TEXT/UTF8
Идентификатор кодека/Информация : UTF-8 Plain Text
Продолжительность : 53 м. 36 с.
Битрейт : 1 бит/сек
Count of elements : 15
Размер потока : 802 байт (0%)
Заголовок : Forced
Язык : Russian
Default : Да
Forced : Нет

Текст #2
Идентификатор : 4
Формат : UTF-8
Идентификатор кодека : S_TEXT/UTF8
Идентификатор кодека/Информация : UTF-8 Plain Text
Продолжительность : 57 м. 45 с.
Битрейт : 76 бит/сек
Count of elements : 661
Размер потока : 32,2 Кбайт (0%)
Язык : Russian
Default : Нет
Forced : Нет

Текст #3
Идентификатор : 5
Формат : UTF-8
Идентификатор кодека : S_TEXT/UTF8
Идентификатор кодека/Информация : UTF-8 Plain Text
Продолжительность : 56 м. 27 с.
Битрейт : 93 бит/сек
Count of elements : 790
Размер потока : 38,5 Кбайт (0%)
Заголовок : SDH
Язык : Russian
Default : Нет
Forced : Нет

Текст #4
Идентификатор : 6
Формат : UTF-8
Идентификатор кодека : S_TEXT/UTF8
Идентификатор кодека/Информация : UTF-8 Plain Text
Продолжительность : 56 м. 7 с.
Битрейт : 52 бит/сек
Count of elements : 657
Размер потока : 21,8 Кбайт (0%)
Язык : English
Default : Нет
Forced : Нет

Когда раздача ведётся путём добавления новых серий, при каждом добавлении создётся новый торрент. Чтобы начать докачку новой серии, пользователям необходимо сделать следующее:
(1) остановить скачивание,
(2) удалить старый торрент у себя из клиента (старые серии удалять не надо),
(3) скачать новый торрент и запустить его у себя в клиенте вместо старого, при этом указать клиенту путь в старую папку, куда и должно происходить скачивание новых серий.
Ваш клиент при этом должен произвести хеширование (проверку) старой папки (если не производит сам - помогите ему сделать это), и будет докачивать только те серии, которых у вас ещё нет. Старые серии при этом не удаляются, а продолжают раздаваться!
Eсли вы уже удалили старые серии, то предотвратить повторную закачку старых серий можно, отжав галочку в соответсвующих местах при запуске нового торрента. По возможности, желательно не удалять старые серии как можно дольше, чтобы релизёр не столько продолжал раздавать старые серии, а смог сконцентрироваться на новых.




Скачать Видеть через торрент https://i3-imageban-ru.translate.goog/out/2022/08/29/2e5bbb331bee268f66875f91be2521cd.png Скачать, смотреть онлайн Видеть бесплантно в хорошем качестве Описание: В далёком будущем человеческая раса полностью лишилась зрения. Чтобы выжить, людям пришлось найти новый способ сосуществовать, ... 4.2 10 14
Торрент: Зарегистрирован [2022-10-14 09:30] · скачан: 115 раз
Статус: √ проверено
Размер: 12.64 GB
Как cкачать? Как скачать Видеть через торрент | UTorrent

% Раздел Тема Автор DL S | L
Зарубежные сериалы [ 33.25 GB ] Видеть / See / Сезон: 3 / Серии: 1-8 из 8 | Пифагор | 1080p killermax2013 Скачать
3 | 0
Зарубежные сериалы [ 15.31 GB ] Видеть / See / Сезон: 3 / Серии: 1-8 из 8 | Пифагор | 1080p killermax2013 Скачать
3 | 0
T Зарубежные сериалы [ 9.23 GB ] Видеть / See / Сезон: 3 / Серии: 1-8 из 8 | ColdFilm | 720p bober100 Скачать
1 | 2
Зарубежные сериалы [ 6.3 GB ] Видеть / See / Сезон: 2 / Серии: 1-8 из 8 | LostFilm | DLRip bober100 Скачать
2 | 0
Зарубежные сериалы [ 37.72 GB ] Видеть / See / Сезон: 2 / Серии: 1-8 из 8 | NewStudio | 1080p bober100 Скачать
1 | 0
Зарубежные сериалы [ 14.14 GB ] Видеть / See / Сезон: 2 / Серии: 1-8 из 8 | Пифагор | 720p bober100 Скачать
2 | 0
Зарубежные сериалы [ 16.95 GB ] Видеть / See / Сезон: 2 / Серии: 1-8 из 8 | Jaskier | 720p killermax2013 Скачать
1 | 0

28-11-2019 20:33  


Отключить вcю реклaмy на сайте, в т.ч. и в плеере онлайн просмотра!

    Дорогой пользователь! Огромная просьба, поблагодарите релизера, оцените раздачу и оставьте свои комментарий, если Вы скачали Видеть через торрент бесплатно!!
    Комментировать посты могут только пользователи прошедшие не сложную регистрацию
    Показать сообщения:    


    Видеть через торрент
    Скачать бесплатно Видеть
    Видеть скачать торрент
    Видеть смотреть онлайн
    Cкачать фильм Видеть бесплатно
    Видеть скачать торрент в хорошем качестве
    Видеть смотреть онлайн бесплатно в хорошем качестве
    Вы не можете начинать темы
    Вы не можете отвечать на сообщения
    Вы не можете редактировать свои сообщения
    Вы не можете удалять свои сообщения
    Вы не можете голосовать в опросах
    Вы не можете прикреплять файлы к сообщениям
    Вы можете скачивать файлы
    Видеть / See / Сезон: 3 / Серии: 1-8 из 8 [2022, Фантастика, боевик, драма, WEBRip 720p] Дубляж [Пифагор / Apple TV picoco.icu