Достать ножи: Стеклянная луковица

MVO

Добыча

Дубляж

Уэнсдэй

1 сезон

Тор

Дубляж

13 клиническая

1 сезон

Жестокая ночь

MVO

Одни из нас

1 сезон

Deluxe

pack

Рекомендуем

30

Пиратка

ВАЖНО

ВАЖНО

Ghostwire

Пиратка

jed

RePack

nioh2

RePack

RDR2

RePack

NEED FOR SPEED™ PAYBACK

RePack

скачать торрент

Кинопоиск HD

Острые козырьки 6 сезон

6 сезон

FAR CRY 6

RePack

скачать торрент

Лицензия

скачать торрент

MVO

1

1 сезон

скачать торрент

1 сезон

скачать торрент

Лицензия

  

Шантарам / Shantaram / Сезон: 1 / Серии: 1-12 из 12 (Джастин Курзель, Иэн Б. МакДональд, Бхарат Наллури) [2022, Боевик, триллер, драма, криминал, приключения, WEB-DLRip] Дубляж [Пифагор / Apple TV+]

Шантарам через торрент pb.wtf

Раздают: 2 [ 0 KB/s ]
Размер: 9.13 GB | Добавлен: 1 мес. 20 д. назад | Торрент скачан:75 раз
Смотреть онлайн | Скачать | Поддержите нас   

14-10-2022 13:42 Шантарам Скачать торрент  

Шантарам
Shantaram

Год выпуска: 2022
Страна: США
Выпущено: Anonymous Content, Paramount Television Studios
Жанр: Боевик, триллер, драма, криминал, приключения
Продолжительность: ~ 01:00:00 серия
Перевод: Дублированный | Пифагор по заказу Apple TV+
Субтитры: Русские (Forced, Full |Apple TV+|), Английские (SDH)

Режиссер: Джастин Курзель, Иэн Б. МакДональд, Бхарат Наллури, Бронуэн Хьюз

rating

В ролях: Чарли Ханнэм, Ричард Роксбург, Радхика Апте, Александр Сиддиг, Антония Деспла, Камал Кришна, Электра Килби, Шубхам Сараф, Венсан Перес, Габриэль Шарницки, Моника Кумар, Файссал Баззи, Люк Паскуалино, Рэйчел Камат, Мэл Одедра, Сурадж Коларкар, Моник Калмар, Хильда Фэй, Дэвид Филд, Сажайя Дасгупта, Раэл Роман, Эльхам Эхсас, Арка Дас, Элвин Махарадж, Аарон Глинейн, Суман Си Таран, Эрролл Шэнд, Вессе Саастамойнен, Исмаил Баши, Алекс Санти, Майкл Эм Фостер

Описание: 1980-е. Наркозависимый Лин сбегает из австралийской тюрьмы, добирается до Индии, где становится фальшивомонетчиком и контрабандистом, снимается в Болливуде и встречает любовь.

Качество: WEB-DLRip
Формат: AVI

Видео: XviD, 720x304 (2,35:1), 23,976 кадров/сек, 1700 Кбит/сек
Аудио №1 Rus: AC3, 48,0 kHz, 2 ch, 192 Кбит/сек | Пифагор
Аудио №2 Eng: AC3, 48,0 kHz, 2 ch, 192 Кбит/сек
скриншот  скриншот  скриншот  скриншот  

Общее
Полное имя : D:\Shantaram (Season 1) WEB-DLRip\Shantaram.S01E01.WEB-DLRip.RGzsRutracker.[Wentworth_Miller].avi
Формат : AVI
Формат/Информация : Audio Video Interleave
Размер файла : 904 Мбайт
Продолжительность : 1 ч. 0 м.
Общий поток : 2 098 Кбит/сек
Программа кодирования : VirtualDubMod 1.5.10.3 | www.virtualdub-fr.org || (build 2550/release)
Библиотека кодирования : VirtualDubMod build 2550/release

Видео
Идентификатор : 0
Формат : MPEG-4 Visual
Профиль формата : Advanced [email protected]
Настройки формата : BVOP1 / Custom Matrix
Параметр BVOP формата : 1
Параметр QPel формата : Нет
Параметр GMC формата : Без точки перехода
Параметр матрицы формата : Выборочная
Идентификатор кодека : XVID
Идентификатор кодека/Подсказка : XviD
Продолжительность : 1 ч. 0 м.
Битрейт : 1 700 Кбит/сек
Ширина : 720 пикселей
Высота : 304 пикселя
Соотношение сторон : 2,35:1
Частота кадров : 23,976 (24000/1001) кадра/сек
Цветовое пространство : YUV
Субдискретизация насыщенности : 4:2:0
Битовая глубина : 8 бит
Тип развёртки : Прогрессивная
Метод сжатия : С потерями
Бит/(Пиксели*Кадры) : 0.324
Размер потока : 732 Мбайт (81%)
Библиотека кодирования : XviD 69

Аудио #1
Идентификатор : 1
Формат : AC-3
Формат/Информация : Audio Coding 3
Коммерческое название : Dolby Digital
Идентификатор кодека : 2000
Продолжительность : 1 ч. 0 м.
Вид битрейта : Постоянный
Битрейт : 192 Кбит/сек
Каналы : 2 канала
Channel layout : L R
Частота : 48,0 КГц
Частота кадров : 31,250 кадров/сек (1536 SPF)
Метод сжатия : С потерями
Размер потока : 82,7 Мбайт (9%)
Выравнивание : Разделение по промежуткам
Продолжительность промежутка : 42 мс. (1,00 видеокадр)
Время предзагрузки промежутка : 500 мс.
Service kind : Complete Main

Аудио #2
Идентификатор : 2
Формат : AC-3
Формат/Информация : Audio Coding 3
Коммерческое название : Dolby Digital
Идентификатор кодека : 2000
Продолжительность : 1 ч. 0 м.
Вид битрейта : Постоянный
Битрейт : 192 Кбит/сек
Каналы : 2 канала
Channel layout : L R
Частота : 48,0 КГц
Частота кадров : 31,250 кадров/сек (1536 SPF)
Метод сжатия : С потерями
Размер потока : 82,7 Мбайт (9%)
Выравнивание : Разделение по промежуткам
Продолжительность промежутка : 42 мс. (1,00 видеокадр)
Время предзагрузки промежутка : 500 мс.
Service kind : Complete Main

Когда раздача ведётся путём добавления новых серий, при каждом добавлении создётся новый торрент. Чтобы начать докачку новой серии, пользователям необходимо сделать следующее:
(1) остановить скачивание,
(2) удалить старый торрент у себя из клиента (старые серии удалять не надо),
(3) скачать новый торрент и запустить его у себя в клиенте вместо старого, при этом указать клиенту путь в старую папку, куда и должно происходить скачивание новых серий.
Ваш клиент при этом должен произвести хеширование (проверку) старой папки (если не производит сам - помогите ему сделать это), и будет докачивать только те серии, которых у вас ещё нет. Старые серии при этом не удаляются, а продолжают раздаваться!
Eсли вы уже удалили старые серии, то предотвратить повторную закачку старых серий можно, отжав галочку в соответсвующих местах при запуске нового торрента. По возможности, желательно не удалять старые серии как можно дольше, чтобы релизёр не столько продолжал раздавать старые серии, а смог сконцентрироваться на новых.




Скачать Шантарам через торрент https://i4-imageban-ru.translate.goog/out/2022/10/13/369fe655123063aeef13758767749e33.jpg Скачать, смотреть онлайн Шантарам бесплантно в хорошем качестве Описание: 1980-е. Наркозависимый Лин сбегает из австралийской тюрьмы, добирается до Индии, где становится фальшивомонетчиком и ... 6.5 10 21
Торрент: Зарегистрирован [2022-12-17 19:19] · скачан: 75 раз
Статус: √ проверено
Размер: 9.13 GB
Как cкачать? Как скачать Шантарам через торрент | UTorrent

% Раздел Тема Автор DL S | L
Зарубежные сериалы [ 10.69 GB ] Шантарам / Shantaram / Сезон: 1 / Серии: 1-12 из 12 | HDRezka Studio | DLRip bober100 Скачать
3 | 0
Зарубежные сериалы [ 9.35 GB ] Шантарам / Shantaram / Сезон: 1 / Серии: 1-12 из 12 | Пифагор | DLRip-AVC bober100 Скачать
6 | 0
Зарубежные сериалы [ 53.56 GB ] Шантарам / Shantaram / Сезон: 1 / Серии: 1-12 из 12 | Пифагор | 1080p bober100 Скачать
4 | 0
Зарубежные сериалы [ 14.06 GB ] Шантарам / Shantaram / Сезон: 1 / Серии: 1-4 из 12 | DUB | 1080p killermax2013 Скачать
2 | 1
Зарубежные сериалы [ 25.38 GB ] Шантарам / Shantaram / Сезон: 1 / Серии: 1-12 из 12 | Пифагор | 720p bober100 Скачать
2 | 0

28-11-2019 20:33  


Отключить вcю реклaмy на сайте, в т.ч. и в плеере онлайн просмотра!

    Дорогой пользователь! Огромная просьба, поблагодарите релизера, оцените раздачу и оставьте свои комментарий, если Вы скачали Шантарам через торрент бесплатно!!
    Комментировать посты могут только пользователи прошедшие не сложную регистрацию
    Показать сообщения:    


    Шантарам через торрент
    Скачать бесплатно Шантарам
    Шантарам скачать торрент
    Шантарам смотреть онлайн
    Cкачать фильм Шантарам бесплатно
    Шантарам скачать торрент в хорошем качестве
    Шантарам смотреть онлайн бесплатно в хорошем качестве
    Вы не можете начинать темы
    Вы не можете отвечать на сообщения
    Вы не можете редактировать свои сообщения
    Вы не можете удалять свои сообщения
    Вы не можете голосовать в опросах
    Вы не можете прикреплять файлы к сообщениям
    Вы можете скачивать файлы
    Шантарам / Shantaram / Сезон: 1 / Серии: 1-12 из 12 [2022, Боевик, триллер, драма, криминал, приключения, WEB-DLRip] Дубляж [Пифагор / Apple TV picoco.icu