Достать ножи: Стеклянная луковица

MVO

Добыча

Дубляж

Уэнсдэй

1 сезон

Тор

Дубляж

13 клиническая

1 сезон

Жестокая ночь

MVO

Одни из нас

1 сезон

Deluxe

pack

Рекомендуем

30

Пиратка

ВАЖНО

ВАЖНО

Ghostwire

Пиратка

jed

RePack

nioh2

RePack

RDR2

RePack

NEED FOR SPEED™ PAYBACK

RePack

скачать торрент

Кинопоиск HD

Острые козырьки 6 сезон

6 сезон

FAR CRY 6

RePack

скачать торрент

Лицензия

скачать торрент

MVO

1

1 сезон

скачать торрент

1 сезон

скачать торрент

Лицензия

  

House Of Lords - New World - New Eyes - 2020/ FLAC/ image +.cue/ lossless/ Melodic Hard Rock

House Of Lords - New World - New Eyes - 2020 через торрент pb.wtf

Размер: 403 MB | Добавлен: 3 мес. 7 д. назад | Торрент скачан:7 раз
| Скачать | Поддержите нас   

22-10-2022 14:49 House Of Lords - New World - New Eyes - 2020 Скачать торрент  


House Of Lords - New World - New Eyes


Год издания: 2020
Страна: USA
Жанр: Melodic Hard Rock
Продолжительность: 00:52:13
Лейбл издания: King Records
Страна-выпуска диска: Japan
Номер по каталогу: KICP 4025
Формат: FLAC
Битрейт аудио: Lossless
Тип рипа: image +.cue
Наличие сканов в содержимом раздачи: да


01. New World - New Eyes (4:39)
02. Change (What's It Gonna Take) (5:19)
03. One More (4:35)
04. Perfectly (You And I) (4:29)
05. The Both Of Us (4:22)
06. Chemical Rush (4:27)
07. We're All That We Got (4:37)
08. Better Off Broken (3:42)
09. $5 Buck Of Gasoline (4:17)
10. The Chase (4:08)
11. The Summit (4:09)
12. You (3:36)

Код:

X Lossless Decoder version 20210101 (153.1)

XLD extraction logfile from 2021-01-14 15:16:15 +1000

House Of Lords / New World - New Eyes

Used drive : Optiarc DVD RW AD-7700S (revision 1.D5)
Media type : Pressed CD

Ripper mode             : XLD Secure Ripper
Disable audio cache     : OK for the drive with a cache less than 1375KiB
Make use of C2 pointers : NO
Read offset correction  : 48
Max retry count         : 20
Gap status              : Analyzed, Appended

TOC of the extracted CD
     Track |   Start  |  Length  | Start sector | End sector
    ---------------------------------------------------------
        1  | 00:00:00 | 04:38:12 |         0    |    20861
        2  | 04:38:12 | 05:18:54 |     20862    |    44765
        3  | 09:56:66 | 04:34:24 |     44766    |    65339
        4  | 14:31:15 | 04:28:58 |     65340    |    85497
        5  | 18:59:73 | 04:21:22 |     85498    |   105094
        6  | 23:21:20 | 04:26:74 |    105095    |   125118
        7  | 27:48:19 | 04:36:17 |    125119    |   145835
        8  | 32:24:36 | 03:41:13 |    145836    |   162423
        9  | 36:05:49 | 04:16:33 |    162424    |   181656
       10  | 40:22:07 | 04:07:15 |    181657    |   200196
       11  | 44:29:22 | 04:08:20 |    200197    |   218816
       12  | 48:37:42 | 03:35:31 |    218817    |   234972

AccurateRip Summary (DiscID: 00184538-00e049da-a60c3c0c)
    Track 01 : OK (v2, confidence 1/1)
    Track 02 : OK (v2, confidence 1/1)
    Track 03 : OK (v2, confidence 1/1)
    Track 04 : OK (v2, confidence 1/1)
    Track 05 : OK (v2, confidence 1/1)
    Track 06 : OK (v2, confidence 1/1)
    Track 07 : OK (v2, confidence 1/1)
    Track 08 : OK (v2, confidence 1/1)
    Track 09 : OK (v2, confidence 1/1)
    Track 10 : OK (v2, confidence 1/1)
    Track 11 : OK (v2, confidence 1/1)
    Track 12 : OK (v2, confidence 1/1)
        ->All tracks accurately ripped.

All Tracks
    Filename : /Volumes/Seagate Backup Plus Drive/Music/1 My COLLECTION/House Of Lords/New World - New Eyes.flac
    CRC32 hash (test run)    : B0BCE9A3
    CRC32 hash               : B0BCE9A3
    CRC32 hash (skip zero)   : C8258859
    Statistics
        Read error                           : 0
        Jitter error (maybe fixed)           : 0
        Retry sector count                   : 0
        Damaged sector count                 : 0

Track 01
    Pre-gap length : 00:02:00

    CRC32 hash (test run)    : 076C13A5
    CRC32 hash               : 076C13A5
    CRC32 hash (skip zero)   : 50BAB88B
    AccurateRip v1 signature : 49139466
    AccurateRip v2 signature : 0DE2BF8C
        ->Accurately ripped (v2, confidence 1/1)
    Statistics
        Read error                           : 0
        Jitter error (maybe fixed)           : 0
        Retry sector count                   : 0
        Damaged sector count                 : 0

Track 02
    Pre-gap length : 00:02:00

    CRC32 hash (test run)    : F0C46871
    CRC32 hash               : F0C46871
    CRC32 hash (skip zero)   : 1DC7B50F
    AccurateRip v1 signature : 387EA3E6
    AccurateRip v2 signature : DB17FE08
        ->Accurately ripped (v2, confidence 1/1)
    Statistics
        Read error                           : 0
        Jitter error (maybe fixed)           : 0
        Retry sector count                   : 0
        Damaged sector count                 : 0

Track 03
    Pre-gap length : 00:02:00

    CRC32 hash (test run)    : 90614064
    CRC32 hash               : 90614064
    CRC32 hash (skip zero)   : C2B70725
    AccurateRip v1 signature : 56990BE6
    AccurateRip v2 signature : A4071268
        ->Accurately ripped (v2, confidence 1/1)
    Statistics
        Read error                           : 0
        Jitter error (maybe fixed)           : 0
        Retry sector count                   : 0
        Damaged sector count                 : 0

Track 04
    Pre-gap length : 00:02:00

    CRC32 hash (test run)    : DBDCED19
    CRC32 hash               : DBDCED19
    CRC32 hash (skip zero)   : 54ABCA4B
    AccurateRip v1 signature : CA3FD1DA
    AccurateRip v2 signature : 37AEDF59
        ->Accurately ripped (v2, confidence 1/1)
    Statistics
        Read error                           : 0
        Jitter error (maybe fixed)           : 0
        Retry sector count                   : 0
        Damaged sector count                 : 0

Track 05
    Pre-gap length : 00:02:00

    CRC32 hash (test run)    : F0A96CC6
    CRC32 hash               : F0A96CC6
    CRC32 hash (skip zero)   : 3828D888
    AccurateRip v1 signature : 46D4881F
    AccurateRip v2 signature : 056CC283
        ->Accurately ripped (v2, confidence 1/1)
    Statistics
        Read error                           : 0
        Jitter error (maybe fixed)           : 0
        Retry sector count                   : 0
        Damaged sector count                 : 0

Track 06
    Pre-gap length : 00:02:00

    CRC32 hash (test run)    : D9018B6A
    CRC32 hash               : D9018B6A
    CRC32 hash (skip zero)   : 6C2A2B38
    AccurateRip v1 signature : 6A877B77
    AccurateRip v2 signature : DA6F914C
        ->Accurately ripped (v2, confidence 1/1)
    Statistics
        Read error                           : 0
        Jitter error (maybe fixed)           : 0
        Retry sector count                   : 0
        Damaged sector count                 : 0

Track 07
    Pre-gap length : 00:02:00

    CRC32 hash (test run)    : EFCEA752
    CRC32 hash               : EFCEA752
    CRC32 hash (skip zero)   : B2811AAE
    AccurateRip v1 signature : 57D6D4CA
    AccurateRip v2 signature : 7C02F216
        ->Accurately ripped (v2, confidence 1/1)
    Statistics
        Read error                           : 0
        Jitter error (maybe fixed)           : 0
        Retry sector count                   : 0
        Damaged sector count                 : 0

Track 08
    Pre-gap length : 00:02:00

    CRC32 hash (test run)    : B46E6F94
    CRC32 hash               : B46E6F94
    CRC32 hash (skip zero)   : 878C80DA
    AccurateRip v1 signature : 872D9890
    AccurateRip v2 signature : C71DD7F9
        ->Accurately ripped (v2, confidence 1/1)
    Statistics
        Read error                           : 0
        Jitter error (maybe fixed)           : 0
        Retry sector count                   : 0
        Damaged sector count                 : 0

Track 09
    Pre-gap length : 00:02:00

    CRC32 hash (test run)    : 5C501AE4
    CRC32 hash               : 5C501AE4
    CRC32 hash (skip zero)   : 0A90337E
    AccurateRip v1 signature : D29F3CD7
    AccurateRip v2 signature : FF32BDA6
        ->Accurately ripped (v2, confidence 1/1)
    Statistics
        Read error                           : 0
        Jitter error (maybe fixed)           : 0
        Retry sector count                   : 0
        Damaged sector count                 : 0

Track 10
    Pre-gap length : 00:02:00

    CRC32 hash (test run)    : 2D5FBCBD
    CRC32 hash               : 2D5FBCBD
    CRC32 hash (skip zero)   : 0BA2622A
    AccurateRip v1 signature : 954EE9BA
    AccurateRip v2 signature : 35EF1F9E
        ->Accurately ripped (v2, confidence 1/1)
    Statistics
        Read error                           : 0
        Jitter error (maybe fixed)           : 0
        Retry sector count                   : 0
        Damaged sector count                 : 0

Track 11
    Pre-gap length : 00:02:00

    CRC32 hash (test run)    : 2D631D6D
    CRC32 hash               : 2D631D6D
    CRC32 hash (skip zero)   : 2D3FCC6F
    AccurateRip v1 signature : 08D2762E
    AccurateRip v2 signature : 976BB01A
        ->Accurately ripped (v2, confidence 1/1)
    Statistics
        Read error                           : 0
        Jitter error (maybe fixed)           : 0
        Retry sector count                   : 0
        Damaged sector count                 : 0

Track 12
    Pre-gap length : 00:02:00

    CRC32 hash (test run)    : EAF5BC22
    CRC32 hash               : EAF5BC22
    CRC32 hash (skip zero)   : 63FE0A3E
    AccurateRip v1 signature : E37B45B1
    AccurateRip v2 signature : 555135DA
        ->Accurately ripped (v2, confidence 1/1)
    Statistics
        Read error                           : 0
        Jitter error (maybe fixed)           : 0
        Retry sector count                   : 0
        Damaged sector count                 : 0

No errors occurred

End of status report

Код:

REM GENRE "Hard Rock"
REM DATE "2020"
REM DISCID A60C3C0C
TITLE "New World - New Eyes"
PERFORMER "House Of Lords"
FILE "House Of Lords - New World - New Eyes.flac" WAVE
  TRACK 01 AUDIO
    TITLE "New World - New Eyes"
    SONGWRITER "Christian/Bell/Spiro"
    ISRC ITG272000610
    INDEX 01 00:00:00
  TRACK 02 AUDIO
    TITLE "Change (What's It Gonna Take)"
    SONGWRITER "Christian/Spiro/Bell"
    ISRC ITG272000611
    INDEX 00 04:36:12
    INDEX 01 04:38:12
  TRACK 03 AUDIO
    TITLE "One More"
    SONGWRITER "Spiro/Christian/Bell"
    ISRC ITG272000612
    INDEX 00 09:54:66
    INDEX 01 09:56:66
  TRACK 04 AUDIO
    TITLE "Perfectly (You And I)"
    SONGWRITER "Christian/Bell/Spiro"
    ISRC ITG272000613
    INDEX 00 14:29:15
    INDEX 01 14:31:15
  TRACK 05 AUDIO
    TITLE "The Both Of Us"
    SONGWRITER "Spiro/Christian/Bell"
    ISRC ITG272000614
    INDEX 00 18:57:73
    INDEX 01 18:59:73
  TRACK 06 AUDIO
    TITLE "Chemical Rush"
    SONGWRITER "Bell/Christian/Hymas"
    ISRC ITG272000615
    INDEX 00 23:19:20
    INDEX 01 23:21:20
  TRACK 07 AUDIO
    TITLE "We're All That We Got"
    SONGWRITER "Spiro/Christian/Bell"
    ISRC ITG272000616
    INDEX 00 27:46:19
    INDEX 01 27:48:19
  TRACK 08 AUDIO
    TITLE "Better Off Broken"
    SONGWRITER "Bell/Spiro/Christian"
    ISRC ITG272000617
    INDEX 00 32:22:36
    INDEX 01 32:24:36
  TRACK 09 AUDIO
    TITLE "$5 Buck Of Gasoline"
    SONGWRITER "Spiro/Denander/Christian"
    ISRC ITG272000618
    INDEX 00 36:03:49
    INDEX 01 36:05:49
  TRACK 10 AUDIO
    TITLE "The Chase"
    SONGWRITER "Bell/Pelcer/Christian"
    ISRC ITG272000619
    INDEX 00 40:20:07
    INDEX 01 40:22:07
  TRACK 11 AUDIO
    TITLE "The Summit"
    SONGWRITER "Bell/Christian/Hymas"
    ISRC ITG272000620
    INDEX 00 44:27:22
    INDEX 01 44:29:22
  TRACK 12 AUDIO
    TITLE "You"
    SONGWRITER "A. Cannata/SOLDEN"
    ISRC ITG272000621
    INDEX 00 48:35:42
    INDEX 01 48:37:42









Скачать House Of Lords - New World - New Eyes - 2020 через торрент https://i4-imageban-ru.translate.goog/out/2022/10/22/0cd613f6a01f39bd412f82d7e0384668.png Скачать, смотреть онлайн House Of Lords - New World - New Eyes - 2020 бесплантно в хорошем качестве Трэклист New World - New Eyes (4:39) Change (What's It Gonna Take) (5:19) One More (4:35) Perfectly (You ... 10 10 1
Торрент: Зарегистрирован [2022-10-22 14:49] · скачан: 7 раз
Статус: √ проверено
Размер: 403 MB
Как cкачать? Как скачать House Of Lords - New World - New Eyes - 2020 через торрент | UTorrent

28-11-2019 20:33  


Отключить вcю реклaмy на сайте, в т.ч. и в плеере онлайн просмотра!

    Дорогой пользователь! Огромная просьба, поблагодарите релизера, оцените раздачу и оставьте свои комментарий, если Вы скачали House Of Lords - New World - New Eyes - 2020 через торрент бесплатно!!
    Комментировать посты могут только пользователи прошедшие не сложную регистрацию
    Показать сообщения:    


    House Of Lords - New World - New Eyes - 2020 через торрент
    Скачать бесплатно House Of Lords - New World - New Eyes - 2020
    House Of Lords - New World - New Eyes - 2020 скачать торрент
    House Of Lords - New World - New Eyes - 2020 смотреть онлайн
    Cкачать фильм House Of Lords - New World - New Eyes - 2020 бесплатно
    House Of Lords - New World - New Eyes - 2020 скачать торрент в хорошем качестве
    House Of Lords - New World - New Eyes - 2020 смотреть онлайн бесплатно в хорошем качестве
    Вы не можете начинать темы
    Вы не можете отвечать на сообщения
    Вы не можете редактировать свои сообщения
    Вы не можете удалять свои сообщения
    Вы не можете голосовать в опросах
    Вы не можете прикреплять файлы к сообщениям
    Вы можете скачивать файлы
    House Of Lords - New World - New Eyes - 2020/ FLAC/ image +.cue/ lossless/ Melodic Hard Rock смотреть онлайн, скачать торрент picoco.icu