Достать ножи: Стеклянная луковица

MVO

Добыча

Дубляж

Уэнсдэй

1 сезон

Тор

Дубляж

13 клиническая

1 сезон

Жестокая ночь

MVO

Одни из нас

1 сезон

Deluxe

pack

Рекомендуем

30

Пиратка

ВАЖНО

ВАЖНО

Ghostwire

Пиратка

jed

RePack

nioh2

RePack

RDR2

RePack

NEED FOR SPEED™ PAYBACK

RePack

скачать торрент

Кинопоиск HD

Острые козырьки 6 сезон

6 сезон

FAR CRY 6

RePack

скачать торрент

Лицензия

скачать торрент

MVO

1

1 сезон

скачать торрент

1 сезон

скачать торрент

Лицензия

  

Периферийные устройства / The Peripheral / Сезон: 1 / Серии: 1-8 из 8 (Винченцо Натали, Олрик Райли) [2022, Фантастика, WEB-DLRip-AVC] 5 x MVO [LostFilm, AlexFilm, HDRezka, RuDub, NewComers]

Периферийные устройства через торрент pb.wtf

Раздают: 12 [ 406 KB/s ]
Размер: 13.62 GB | Добавлен: 1 мес. 30 д. назад | Торрент скачан:121 раз
Смотреть онлайн | Скачать | Поддержите нас   

23-10-2022 00:48 Периферийные устройства Скачать торрент  

Периферийные устройства / The Peripheral
  • Год выпуска: 2022
  • Страна: США
  • Студия:Amazon Studios, Big Indie Pictures, Kilter Films, Warner Bros.
  • Жанр: Фантастика
  • Продолжительность: ~ 01:00:00 (Серия)
  • Перевод:
    Профессиональный многоголосый [LostFilm]
    Профессиональный многоголосый [AlexFilm]
    Профессиональный многоголосый [HDRezka]
    Профессиональный многоголосый [RuDub]
    Профессиональный многоголосый [NewComers]

  • Субтитры: Русские (Forced |HDRezka|, Full |Amazon|)
    Режиссер: Винченцо Натали, Олрик Райли
  • В ролях:
    Хлоя Грейс Морец, Гари Карр, Джек Рейнор, Луис Хертэм, Крис Кой, Остин Райзинг, Элай Гори, Майлз Барроу, Мелинда Пейдж Хэмилтон
  • Описание:
    Недалёкое будущее. Флинн Фишер живёт в страдающем от безработицы американском захолустье. Её брат Бёртон — бывший морпех — получает пенсию по инвалидности и подрабатывает бета-тестером новой компьютерной игры. Однажды он просит сестру подменить его на сеансе. Так Флинн попадает в новую реальность и знакомится с технологией, неуловимо меняющей человеческое общество.
  • Рейтинг:

    rating


  • Качество: WEB-DLRip-AVC
  • Формат: :MKV
  • Видео кодек: AVC
  • Аудио кодек: AC3
  • Видео: 1524 Кбит/сек, 1024*512 (2,000), в 23,976 (24000/1001) кадра/сек, AVC
  • Аудио №1: Русский 384 Кбит/сек, 48,0 КГц, 16 бит, 2 канала, AC-3|[LostFilm]| - Серии - 1-8
  • Аудио №2: Русский 384 Кбит/сек, 48,0 КГц, 16 бит, 6 каналов, AC-3|[AlexFilm]| - Серии - 1-8
  • Аудио №3: Русский 384 Кбит/сек, 48,0 КГц, 16 бит, 6 каналов, AC-3|[HDRezka]| - версия озвучки с цензурой - Серии - 1-8
  • Аудио №4: Русский 384 Кбит/сек, 48,0 КГц, 16 бит, 6 каналов, AC-3|[HDRezka]| - версия озвучки без цензуры - Серии - 1-8
  • Аудио №5: Русский 384 Кбит/сек, 48,0 КГц, 16 бит, 2 канала, AC-3|[RuDub]| - Серии - 1-8
  • Аудио №6: Русский 384 Кбит/сек, 48,0 КГц, 16 бит, 6 каналов, AC-3|[NewComers]| - версия озвучки без цензуры - Серии - 1-8
  • Аудио №7: Английский 384 Кбит/сек, 48,0 КГц, 16 бит, 6 каналов, AC-3
    Общее
    Уникальный идентификатор : 136316562045982142954740409318681176646 (0x668D9D6883EE5000560582EE61C96A46)
    Полное имя : F:\Периферийные устройства (The Peripheral) Сезон 1\Периферийные устройства - The Peripheral.S01E01.(Пилот - Pilot).WEB-DLRip-AVC. 2022 LF AF HDr RuDub NewComers.mkv
    Формат : Matroska
    Версия формата : Version 4
    Размер файла : 1,96 Гбайт
    Продолжительность : 1 ч. 5 м.
    Общий поток : 4294 Кбит/сек
    Название фильма : The.Peripheral.S01E01.Pilot.H.265/HEVC.WEB-DL [email protected]
    Программа кодирования : XviD4PSP 8.0.59
    Библиотека кодирования : Lavf58.20.100
    Обложка : Yes
    ErrorDetectionType : Per level 1
    Attachments : Cover_The.Peripheral
    ENCODING_INFO : JPEG > COPY Быстрое
    Язык : und

    Видео
    Идентификатор : 1
    Формат : AVC
    Формат/Информация : Advanced Video Codec
    Профиль формата : [email protected]
    Настройки формата : CABAC / 4 Ref Frames
    Параметр CABAC формата : Да
    Параметр RefFrames формата : 4 кадра
    Идентификатор кодека : V_MPEG4/ISO/AVC
    Продолжительность : 1 ч. 5 м.
    Битрейт : 1521 Кбит/сек
    Номинальный битрейт : 1800 Кбит/сек
    Ширина : 1024 пикселя
    Высота : 512 пикселей
    Соотношение сторон : 2,000
    Режим частоты кадров : Постоянный
    Частота кадров : 25,000 кадров/сек
    Цветовое пространство : YUV
    Субдискретизация насыщенности : 4:2:0
    Битовая глубина : 8 бит
    Тип развёртки : Прогрессивная
    Бит/(Пиксели*Кадры) : 0.116
    Размер потока : 712 Мбайт (35%)
    Библиотека кодирования : x264 core 157 r2969 d4099dd
    Настройки программы : cabac=1 / ref=3 / deblock=1:-1:-1 / analyse=0x3:0x133 / me=hex / subme=7 / psy=1 / psy_rd=1.00:0.20 / mixed_ref=1 / me_range=16 / chroma_me=1 / trellis=1 / 8x8dct=1 / cqm=0 / deadzone=21,11 / fast_pskip=1 / chroma_qp_offset=-3 / threads=9 / lookahead_threads=1 / sliced_threads=0 / nr=0 / decimate=1 / interlaced=0 / bluray_compat=0 / constrained_intra=0 / bframes=3 / b_pyramid=2 / b_adapt=2 / b_bias=0 / direct=3 / weightb=1 / open_gop=0 / weightp=2 / keyint=250 / keyint_min=25 / scenecut=40 / intra_refresh=0 / rc_lookahead=40 / rc=cbr / mbtree=1 / bitrate=1800 / ratetol=1.0 / qcomp=0.60 / qpmin=0 / qpmax=69 / qpstep=4 / vbv_maxrate=1800 / vbv_bufsize=1285 / nal_hrd=none / filler=0 / ip_ratio=1.40 / aq=1:1.00
    Язык : English
    Default : Да
    Forced : Нет
    Цветовой диапазон : Limited
    Основные цвета : BT.709
    Характеристики трансфера : BT.709
    Коэффициенты матрицы : BT.709
    ENCODING_INFO : H264 > X264 CBR 1800kbps HQ

    Аудио #1
    Идентификатор : 2
    Формат : AC-3
    Формат/Информация : Audio Coding 3
    Коммерческое название : Dolby Digital
    Идентификатор кодека : A_AC3
    Продолжительность : 1 ч. 5 м.
    Вид битрейта : Постоянный
    Битрейт : 384 Кбит/сек
    Каналы : 2 канала
    ChannelLayout : L R
    Частота : 48,0 КГц
    Частота кадров : 31,250 кадров/сек (1536 SPF)
    Битовая глубина : 16 бит
    Метод сжатия : С потерями
    Размер потока : 180 Мбайт (9%)
    Заголовок : Lostfilm
    Язык : Russian
    ServiceKind/String : Complete Main
    Default : Да
    Forced : Нет
    ENCODING_INFO : AC3 > AC3 CBR 384kbps

    Аудио #2
    Идентификатор : 3
    Формат : AC-3
    Формат/Информация : Audio Coding 3
    Коммерческое название : Dolby Digital
    Идентификатор кодека : A_AC3
    Продолжительность : 1 ч. 5 м.
    Вид битрейта : Постоянный
    Битрейт : 384 Кбит/сек
    Каналы : 6 каналов
    ChannelLayout : L R C LFE Ls Rs
    Частота : 48,0 КГц
    Частота кадров : 31,250 кадров/сек (1536 SPF)
    Битовая глубина : 16 бит
    Метод сжатия : С потерями
    Размер потока : 180 Мбайт (9%)
    Заголовок : AlexFilm
    Язык : Russian
    ServiceKind/String : Complete Main
    Default : Нет
    Forced : Нет
    ENCODING_INFO : AC3 > AC3 CBR 384kbps

    Аудио #3
    Идентификатор : 4
    Формат : AC-3
    Формат/Информация : Audio Coding 3
    Коммерческое название : Dolby Digital
    Идентификатор кодека : A_AC3
    Продолжительность : 1 ч. 5 м.
    Вид битрейта : Постоянный
    Битрейт : 384 Кбит/сек
    Каналы : 6 каналов
    ChannelLayout : L R C LFE Ls Rs
    Частота : 48,0 КГц
    Частота кадров : 31,250 кадров/сек (1536 SPF)
    Битовая глубина : 16 бит
    Метод сжатия : С потерями
    Размер потока : 180 Мбайт (9%)
    Заголовок : HDRezka
    Язык : Russian
    ServiceKind/String : Complete Main
    Default : Нет
    Forced : Нет
    ENCODING_INFO : AC3 > AC3 CBR 384kbps

    Аудио #4
    Идентификатор : 5
    Формат : AC-3
    Формат/Информация : Audio Coding 3
    Коммерческое название : Dolby Digital
    Идентификатор кодека : A_AC3
    Продолжительность : 1 ч. 5 м.
    Вид битрейта : Постоянный
    Битрейт : 384 Кбит/сек
    Каналы : 6 каналов
    ChannelLayout : L R C LFE Ls Rs
    Частота : 48,0 КГц
    Частота кадров : 31,250 кадров/сек (1536 SPF)
    Битовая глубина : 16 бит
    Метод сжатия : С потерями
    Размер потока : 180 Мбайт (9%)
    Заголовок : HDRezka (18+)
    Язык : Russian
    ServiceKind/String : Complete Main
    Default : Нет
    Forced : Нет
    ENCODING_INFO : AC3 > AC3 CBR 384kbps

    Аудио #5
    Идентификатор : 6
    Формат : AC-3
    Формат/Информация : Audio Coding 3
    Коммерческое название : Dolby Digital
    Идентификатор кодека : A_AC3
    Продолжительность : 1 ч. 5 м.
    Вид битрейта : Постоянный
    Битрейт : 384 Кбит/сек
    Каналы : 2 канала
    ChannelLayout : L R
    Частота : 48,0 КГц
    Частота кадров : 31,250 кадров/сек (1536 SPF)
    Битовая глубина : 16 бит
    Метод сжатия : С потерями
    Размер потока : 180 Мбайт (9%)
    Заголовок : RuDub
    Язык : Russian
    ServiceKind/String : Complete Main
    Default : Нет
    Forced : Нет
    ENCODING_INFO : AC3 > AC3 CBR 384kbps

    Аудио #6
    Идентификатор : 7
    Формат : AC-3
    Формат/Информация : Audio Coding 3
    Коммерческое название : Dolby Digital
    Идентификатор кодека : A_AC3
    Продолжительность : 1 ч. 5 м.
    Вид битрейта : Постоянный
    Битрейт : 384 Кбит/сек
    Каналы : 6 каналов
    ChannelLayout : L R C LFE Ls Rs
    Частота : 48,0 КГц
    Частота кадров : 31,250 кадров/сек (1536 SPF)
    Битовая глубина : 16 бит
    Метод сжатия : С потерями
    Размер потока : 180 Мбайт (9%)
    Заголовок : NewComers (18+)
    Язык : Russian
    ServiceKind/String : Complete Main
    Default : Нет
    Forced : Нет
    ENCODING_INFO : AC3 > AC3 CBR 384kbps

    Аудио #7
    Идентификатор : 8
    Формат : AC-3
    Формат/Информация : Audio Coding 3
    Коммерческое название : Dolby Digital
    Идентификатор кодека : A_AC3
    Продолжительность : 1 ч. 5 м.
    Вид битрейта : Постоянный
    Битрейт : 384 Кбит/сек
    Каналы : 6 каналов
    ChannelLayout : L R C LFE Ls Rs
    Частота : 48,0 КГц
    Частота кадров : 31,250 кадров/сек (1536 SPF)
    Битовая глубина : 16 бит
    Метод сжатия : С потерями
    Размер потока : 180 Мбайт (9%)
    Заголовок : ENG
    Язык : English
    ServiceKind/String : Complete Main
    Default : Нет
    Forced : Нет
    ENCODING_INFO : EAC3 > AC3 CBR 384kbps

    Текст #1
    Идентификатор : 9
    Формат : UTF-8
    Идентификатор кодека : S_TEXT/UTF8
    Идентификатор кодека/Информация : UTF-8 Plain Text
    Заголовок : Forced
    Язык : Russian
    Default : Да
    Forced : Да
    ENCODING_INFO : SUBRIP > COPY Быстрое

    Текст #2
    Идентификатор : 10
    Формат : UTF-8
    Идентификатор кодека : S_TEXT/UTF8
    Идентификатор кодека/Информация : UTF-8 Plain Text
    Заголовок : Full
    Язык : Russian
    Default : Нет
    Forced : Нет
    ENCODING_INFO : SUBRIP > COPY Быстрое
    Внимание! Раздача ведётся путём добавления новых серий; при каждом добавлении создаётся новый торрент. Чтобы начать докачку новой серии, пользователям необходимо сделать следующее:
    (1) остановить скачивание,
    (2) удалить старый торрент у себя из клиента (старые серии удалять не надо),
    (3) скачать новый торрент и запустить его у себя в клиенте вместо старого, при этом указать клиенту путь в старую папку куда и должно происходить скачивание новых серий.

    Ваш клиент при этом должен произвести хеширование (проверку) старой папки (если не производит сам - помогите ему сделать это), и будет докачивать только те серии которых у вас ещё нет. Старые серии при этом не удаляются, а продолжают раздаваться!

    Eсли вы уже удалили старые серии, то предотвратить повторную закачку старых серий можно, отжав галочку в соответствующих местах при запуске нового торрента. По возможности, желательно не удалять старые серии как можно дольше чтобы релизёр не столько продолжал раздавать старые серии, а смог сконцентрироваться на новых.



    Скриншоты:
    скриншот   скриншот   скриншот   скриншот   скриншот   скриншот   скриншот   
    скриншот  



  • Скачать Периферийные устройства через торрент https://i1-imageban-ru.translate.goog/out/2022/10/24/ad46d29ecd7a3becf7de089d393e1583.png Скачать, смотреть онлайн Периферийные устройства бесплантно в хорошем качестве Описание: Недалёкое будущее. Флинн Фишер живёт в страдающем от безработицы американском захолустье. Её брат Бёртон — бывший морпех — ... 9.8 10 30
    Info! Золотая раздача, скачанное не засчитывается.
    Торрент: Зарегистрирован [2022-12-04 23:05] · скачан: 121 раз
    Статус: √ проверено
    Размер: 13.62 GB
    Как cкачать? Как скачать Периферийные устройства через торрент | UTorrent

    % Раздел Тема Автор DL S | L
    Зарубежные сериалы [ 6.96 GB ] Периферийные устройства / The Peripheral / Сезон: 1 / Серии: 1-8 из 8 | LostFilm | DLRip bober100 Скачать
    7 | 1
    Зарубежные сериалы [ 9.42 GB ] Периферийные устройства / The Peripheral / Сезон: 1 / Серии: 1-8 из 8 | HDRezka Studio | DLRip-AVC bober100 Скачать
    4 | 0
    Зарубежные сериалы [ 39.48 GB ] Периферийные устройства / The Peripheral / Сезон: 1 / Серии: 1-8 из 8 | TVShows | 1080p bober100 Скачать
    9 | 4
    Зарубежные сериалы [ 5.78 GB ] Периферийные устройства / The Peripheral / Сезон: 1 / Серии: 1-8 из 8 | HDRezka Studio | DLRip bober100 Скачать
    12 | 2
    Зарубежные сериалы [ 6.54 GB ] Периферийные устройства / The Peripheral / Сезон: 1 / Серии: 1-2 из 10 | MVO | 1080p killermax2013 Скачать
    1 | 0



    Последний раз редактировалось: GEKADOL (2022-12-04 23:05), всего редактировалось 22 раз(а)

    28-11-2019 20:33  


    Отключить вcю реклaмy на сайте, в т.ч. и в плеере онлайн просмотра!

    30-10-2022 17:36 Периферийные устройства Скачать торрент  

    А в чем прикол постоянно менять имена файлов?



    30-10-2022 23:18 Периферийные устройства Скачать торрент  

    Rushx писал(а):

    А в чем прикол постоянно менять имена файлов?

    Один раз всего Жалуется народ. Длинные имена не все плееры понимают.



    22-11-2022 12:07 Периферийные устройства Скачать торрент  

    Однозначно скрытый Гем.



    04-12-2022 18:58 Периферийные устройства Скачать торрент  

    В 1080р перестали что ли выпускать? Уже сезон закончился, а раздача есть только на 5 серий.



      Дорогой пользователь! Огромная просьба, поблагодарите релизера, оцените раздачу и оставьте свои комментарий, если Вы скачали Периферийные устройства через торрент бесплатно!!
      Комментировать посты могут только пользователи прошедшие не сложную регистрацию
      Показать сообщения:    


      Периферийные устройства через торрент
      Скачать бесплатно Периферийные устройства
      Периферийные устройства скачать торрент
      Периферийные устройства смотреть онлайн
      Cкачать фильм Периферийные устройства бесплатно
      Периферийные устройства скачать торрент в хорошем качестве
      Периферийные устройства смотреть онлайн бесплатно в хорошем качестве
      Вы не можете начинать темы
      Вы не можете отвечать на сообщения
      Вы не можете редактировать свои сообщения
      Вы не можете удалять свои сообщения
      Вы не можете голосовать в опросах
      Вы не можете прикреплять файлы к сообщениям
      Вы можете скачивать файлы
      Периферийные устройства / The Peripheral / Сезон: 1 / Серии: 1-8 из 8 [2022, Фантастика, WEB-DLRip-AVC] 5 x MVO [LostFilm, AlexFilm, HDRezka, RuDub, NewComers] смотреть онлайн, скачать торрент picoco.icu