Достать ножи: Стеклянная луковица

MVO

Добыча

Дубляж

Уэнсдэй

1 сезон

Тор

Дубляж

13 клиническая

1 сезон

Жестокая ночь

MVO

Одни из нас

1 сезон

Deluxe

pack

Рекомендуем

30

Пиратка

ВАЖНО

ВАЖНО

Ghostwire

Пиратка

jed

RePack

nioh2

RePack

RDR2

RePack

NEED FOR SPEED™ PAYBACK

RePack

скачать торрент

Кинопоиск HD

Острые козырьки 6 сезон

6 сезон

FAR CRY 6

RePack

скачать торрент

Лицензия

скачать торрент

MVO

1

1 сезон

скачать торрент

1 сезон

скачать торрент

Лицензия

  

Периферийные устройства / The Peripheral / Сезон: 1 / Серии: 1-8 из 8 (Винченцо Натали, Олрик Райли) [2022, Фантастика, WEB-DLRip] MVO [HDRezka]

Периферийные устройства через торрент pb.wtf

Раздают: 11 [ 45 KB/s ] Качают: 2 [ 0 KB/s ]
Размер: 5.78 GB | Добавлен: 2 мес. назад | Торрент скачан:181 раз
Смотреть онлайн | Скачать | Поддержите нас   

23-10-2022 04:22 Периферийные устройства Скачать торрент  

Периферийные устройства | The Peripheral
«---»
Год выпуска: 2022
Страна: США
Выпущено: Amazon Studios, Big Indie Pictures, Kilter Films
Жанр: Фантастика
Продолжительность: ~ 01:12:00 серия
Перевод: Профессиональный (многоголосый) | HDRezka
Субтитры: Русские (форсированные hardsub)

Режиссер: Винченцо Натали, Олрик Райли

rating

В ролях: Хлоя Грейс Морец (Chloë Grace Moretz), Гари Карр (Gary Carr), Джек Рейнор (Jack Reynor), Луис Хертэм (Louis Herthum), Крис Кой (Chris Coy), Остин Райзинг (Austin Rising), Элай Гори (Eli Goree), Майлз Барроу (Miles Barrow), Мелинда Пейдж Хэмилтон (Melinda Page Hamilton), Дэвид Хофлин (David Hoflin)

Описание: Недалёкое будущее. Флинн Фишер живёт в страдающем от безработицы американском захолустье. Её брат Бёртон — бывший морпех — получает пенсию по инвалидности и подрабатывает бета-тестером новой компьютерной игры. Однажды он просит сестру подменить его на сеансе. Так Флинн попадает в новую реальность и знакомится с технологией, неуловимо меняющей человеческое общество.

Качество: WEB-DLRip
Формат: AVI

Видео: XviD, 704x352 (2.00:1), 23,976 fps, ~1500 kbps
Аудио: 48.0 kHz, AC3 Dolby Digital, 2/0 (L,R) ch, ~ 192 kbps
скриншот  скриншот  скриншот  скриншот  скриншот  скриншот  

Полное имя : The.Peripheral.S01.WEB-DLRip.HDRezka\The.Peripheral.S01E01.WEB-DLRip.HDRezka.JuSSiKa.avi
Формат : AVI
Формат/Информация : Audio Video Interleave
Размер файла : 860 Мбайт
Продолжительность : 1 ч. 10 м.
Общий поток : 1 718 Кбит/сек
Программа кодирования : VirtualDubMod 1.5.10.3 (build 2550/release)
Библиотека кодирования : VirtualDubMod build 2550/release

Видео
Идентификатор : 0
Формат : MPEG-4 Visual
Профиль формата : Advanced [email protected]
Настройки формата : BVOP1
Параметр BVOP формата : 1
Параметр QPel формата : Нет
Параметр GMC формата : Без точки перехода
Параметр матрицы формата : Default (H.263)
Идентификатор кодека : XVID
Идентификатор кодека/Подсказка : XviD
Продолжительность : 1 ч. 10 м.
Битрейт : 1 516 Кбит/сек
Ширина : 704 пикселя
Высота : 352 пикселя
Соотношение сторон : 2,000
Частота кадров : 23,976 (24000/1001) кадра/сек
Цветовое пространство : YUV
Субдискретизация насыщенности : 4:2:0
Битовая глубина : 8 бит
Тип развёртки : Прогрессивная
Метод сжатия : С потерями
Бит/(Пиксели*Кадры) : 0.255
Размер потока : 759 Мбайт (88%)
Библиотека кодирования : XviD 1.2.1 (UTC 2008-12-04)

Аудио
Идентификатор : 1
Формат : AC-3
Формат/Информация : Audio Coding 3
Коммерческое название : Dolby Digital
Идентификатор кодека : 2000
Продолжительность : 1 ч. 10 м.
Вид битрейта : Постоянный
Битрейт : 192 Кбит/сек
Каналы : 2 канала
Channel layout : L R
Частота : 48,0 КГц
Частота кадров : 31,250 кадров/сек (1536 SPF)
Метод сжатия : С потерями
Размер потока : 96,2 Мбайт (11%)
Выравнивание : Разделение по промежуткам
Продолжительность промежутка : 42 мс. (1,00 видеокадр)
Время предзагрузки промежутка : 500 мс.
Service kind : Complete Main

Когда раздача ведётся путём добавления новых серий, при каждом добавлении создётся новый торрент. Чтобы начать докачку новой серии, пользователям необходимо сделать следующее:
(1) остановить скачивание,
(2) удалить старый торрент у себя из клиента (старые серии удалять не надо),
(3) скачать новый торрент и запустить его у себя в клиенте вместо старого, при этом указать клиенту путь в старую папку, куда и должно происходить скачивание новых серий.
Ваш клиент при этом должен произвести хеширование (проверку) старой папки (если не производит сам - помогите ему сделать это), и будет докачивать только те серии, которых у вас ещё нет. Старые серии при этом не удаляются, а продолжают раздаваться!
Eсли вы уже удалили старые серии, то предотвратить повторную закачку старых серий можно, отжав галочку в соответсвующих местах при запуске нового торрента. По возможности, желательно не удалять старые серии как можно дольше, чтобы релизёр не столько продолжал раздавать старые серии, а смог сконцентрироваться на новых.




Скачать Периферийные устройства через торрент https://i120.fastpic.org/big/2022/1021/35/3e1cf02f0dbfc5a97f3ebe7423b58835.jpg Скачать, смотреть онлайн Периферийные устройства бесплантно в хорошем качестве Описание: Недалёкое будущее. Флинн Фишер живёт в страдающем от безработицы американском захолустье. Её брат Бёртон — бывший морпех — ... 9.8 10 15
Торрент: Зарегистрирован [2022-12-03 17:52] · скачан: 181 раз
Статус: √ проверено
Размер: 5.78 GB
Как cкачать? Как скачать Периферийные устройства через торрент | UTorrent

% Раздел Тема Автор DL S | L
Зарубежные сериалы [ 6.96 GB ] Периферийные устройства / The Peripheral / Сезон: 1 / Серии: 1-8 из 8 | LostFilm | DLRip bober100 Скачать
8 | 1
Зарубежные сериалы [ 9.42 GB ] Периферийные устройства / The Peripheral / Сезон: 1 / Серии: 1-8 из 8 | HDRezka Studio | DLRip-AVC bober100 Скачать
4 | 0
Зарубежные сериалы [ 13.62 GB ] Периферийные устройства / The Peripheral / Сезон: 1 / Серии: 1-8 из 8 | NewComers | DLRip-AVC GEKADOL Скачать
13 | 0
Зарубежные сериалы [ 39.48 GB ] Периферийные устройства / The Peripheral / Сезон: 1 / Серии: 1-8 из 8 | TVShows | 1080p bober100 Скачать
10 | 4
Зарубежные сериалы [ 6.54 GB ] Периферийные устройства / The Peripheral / Сезон: 1 / Серии: 1-2 из 10 | MVO | 1080p killermax2013 Скачать
1 | 0

28-11-2019 20:33  


Отключить вcю реклaмy на сайте, в т.ч. и в плеере онлайн просмотра!

    Дорогой пользователь! Огромная просьба, поблагодарите релизера, оцените раздачу и оставьте свои комментарий, если Вы скачали Периферийные устройства через торрент бесплатно!!
    Комментировать посты могут только пользователи прошедшие не сложную регистрацию
    Показать сообщения:    


    Периферийные устройства через торрент
    Скачать бесплатно Периферийные устройства
    Периферийные устройства скачать торрент
    Периферийные устройства смотреть онлайн
    Cкачать фильм Периферийные устройства бесплатно
    Периферийные устройства скачать торрент в хорошем качестве
    Периферийные устройства смотреть онлайн бесплатно в хорошем качестве
    Вы не можете начинать темы
    Вы не можете отвечать на сообщения
    Вы не можете редактировать свои сообщения
    Вы не можете удалять свои сообщения
    Вы не можете голосовать в опросах
    Вы не можете прикреплять файлы к сообщениям
    Вы можете скачивать файлы
    Периферийные устройства / The Peripheral / Сезон: 1 / Серии: 1-8 из 8 [2022, Фантастика, WEB-DLRip] MVO [HDRezka] смотреть онлайн, скачать торрент picoco.icu