Достать ножи: Стеклянная луковица

MVO

Добыча

Дубляж

Уэнсдэй

1 сезон

Тор

Дубляж

13 клиническая

1 сезон

Жестокая ночь

MVO

Одни из нас

1 сезон

Deluxe

pack

Рекомендуем

30

Пиратка

ВАЖНО

ВАЖНО

Ghostwire

Пиратка

jed

RePack

nioh2

RePack

RDR2

RePack

NEED FOR SPEED™ PAYBACK

RePack

скачать торрент

Кинопоиск HD

Острые козырьки 6 сезон

6 сезон

FAR CRY 6

RePack

скачать торрент

Лицензия

скачать торрент

MVO

1

1 сезон

скачать торрент

1 сезон

скачать торрент

Лицензия

  

Дом дракона / House of the Dragon / Сезон: 1 / Серии: 1-10 из 10 (Мигель Сапочник, Грег Яйтанс, Клер Килнер) [2022, Фэнтези, боевик, драма, мелодрама, WEB-DL-HEVC 1080p] Дубляж [Кравец / Amedia] +MVO [LostFilm]

Дом дракона через торрент pb.wtf

Раздают: 2 [ 0 KB/s ]
Размер: 18.19 GB | Добавлен: 3 мес. 12 д. назад | Торрент скачан:355 раз
Смотреть онлайн | Скачать | Поддержите нас   

25-10-2022 15:35 Дом дракона Скачать торрент  

Дом дракона | House of the Dragon
«Fire Will Reign»
Год выпуска: 2022
Страна: США
Выпущено: 1:26 Pictures, Home Box Office (HBO)
Жанр: Фэнтези, боевик, драма, мелодрама
Продолжительность: ~ 01:00:00 серия
Перевод:
Дублированный | "Кравец" по заказу Amedia
Профессиональный (многоголосый) | LostFilm
Субтитры: Русские (Forced, 2x Full), английские (Full, SDH)

Режиссер: Мигель Сапочник, Грег Яйтанс, Клер Килнер

rating

В ролях: Пэдди Консидайн, Эмма Д'Арси, Мэтт Смит, Милли Олкок, Ив Бест, Оливия Кук, Рис Иванс, Соноя Мидзуно, Дэвид Хорович, Грэм МакТавиш, Билл Патерсон, Стив Тюссен, Уил Джонсон, Энтони Флэнеган, Эмили Кэри, Эван Митчелл, Гарри Коллетт, Фрэнки Уилсон, Райан Корр, Фабьен Фрэнкел, Джефферсон Холл, Майкл Картер, Дэвид Хаунслоу, Мэтью Нидэм, Гэвин Спокс, Алексис Рабен, Джон МакМиллан, Тео Нейт, Саванна Штейн, Том Глинн-Карни, Бетани Антония, Нина Баркер-Фрэнсис, Хаки Али, Биджан Данешманд, Мартин Портлок, Ханна Флинн, Мария Салливан

Описание: Приквел самого масштабного сериала 2010-х «Игра престолов». История разворачивается за 200 лет до событий саги «Песнь льда и пламени». Таргариены правят Семью Королевствами и находятся на грани гражданской войны. Король Визерис к ужасу подданных объявляет своей наследницей дочь Рейниру. Она должна стать первой женщиной, которая взойдёт на Железный трон, но слишком многим это не по нраву. Судьба королевства висит на волоске.

Качество: WEB-DL-HEVC 1080p
Формат: MKV

Видео: MPEG-H HEVC, ~ 3100 Кбит/с, 1920x960, 23.976 кадр/с, 10 бит
Аудио №1: AC3, 48 kHz, 6 ch, 384 kbps | "Кравец"
Аудио №2: AC3, 48 kHz, 2 ch, 384 kbps | LostFilm
Аудио №3: E-AC3 ATMOS, 48 kHz, 6 ch, 768 kbps
скриншот  скриншот  скриншот  скриншот  скриншот  скриншот  

General
Unique ID : 207903719701504633153502719550518233844 (0x9C68CCC85C57920ABD9E72230AAC8AF4)
Complete name : K:\House of the Dragon.S01.WEB-DL.1080p\House of the Dragon.S01E01.WEB-DL.1080p.x265.HMAX.mkv
Format : Matroska
Format version : Version 4 / Version 2
File size : 2.12 GiB
Duration : 1 h 5 min
Overall bit rate : 4 627 kb/s
Movie name : House of the Dragon.S01E01.WEB-DL.1080p.x265.HMAX
Encoded date : UTC 2022-08-23 19:49:27
Writing application : mkvmerge v8.0.0 ('Til The Day That I Die') 64bit
Writing library : libebml v1.3.1 + libmatroska v1.4.2

Video
ID : 1
Format : HEVC
Format/Info : High Efficiency Video Coding
Format profile : Main [email protected]@Main
Codec ID : V_MPEGH/ISO/HEVC
Duration : 1 h 5 min
Bit rate : 3 089 kb/s
Width : 1 920 pixels
Height : 960 pixels
Display aspect ratio : 2.000
Frame rate mode : Constant
Frame rate : 23.976 (24000/1001) FPS
Color space : YUV
Chroma subsampling : 4:2:0
Bit depth : 10 bits
Bits/(Pixel*Frame) : 0.070
Stream size : 1.42 GiB (67%)
Title : House of the Dragon.S01E01
Writing library : x265 3.5+12+14-106329cbd:[Windows][GCC 10.3.0][64 bit] 10bit
Encoding settings : cpuid=1111039 / frame-threads=3 / numa-pools=12 / wpp / no-pmode / no-pme / no-psnr / ssim / log-level=2 / input-csp=1 / input-res=1920x960 / interlace=0 / total-frames=94380 / level-idc=0 / high-tier=1 / uhd-bd=0 / ref=3 / no-allow-non-conformance / no-repeat-headers / annexb / no-aud / no-eob / no-eos / no-hrd / info / hash=0 / no-temporal-layers / open-gop / min-keyint=23 / keyint=250 / gop-lookahead=0 / bframes=8 / b-adapt=2 / b-pyramid / bframe-bias=0 / rc-lookahead=80 / lookahead-slices=6 / scenecut=40 / no-hist-scenecut / radl=0 / no-splice / no-intra-refresh / ctu=64 / min-cu-size=8 / no-rect / no-amp / max-tu-size=32 / tu-inter-depth=1 / tu-intra-depth=1 / limit-tu=0 / rdoq-level=0 / dynamic-rd=0.00 / no-ssim-rd / signhide / no-tskip / nr-intra=0 / nr-inter=0 / no-constrained-intra / no-strong-intra-smoothing / max-merge=5 / limit-refs=3 / no-limit-modes / me=3 / subme=5 / merange=57 / temporal-mvp / no-frame-dup / no-hme / weightp / no-weightb / no-analyze-src-pics / deblock=0:0 / sao / no-sao-non-deblock / rd=3 / selective-sao=4 / early-skip / no-rskip / no-fast-intra / no-tskip-fast / no-cu-lossless / b-intra / no-splitrd-skip / rdpenalty=0 / psy-rd=2.00 / psy-rdoq=0.00 / no-rd-refine / no-lossless / cbqpoffs=0 / crqpoffs=0 / rc=crf / crf=19.0 / qcomp=0.60 / qpstep=4 / stats-write=0 / stats-read=0 / ipratio=1.40 / pbratio=1.30 / aq-mode=3 / aq-strength=1.00 / cutree / zone-count=0 / no-strict-cbr / qg-size=32 / no-rc-grain / qpmax=69 / qpmin=0 / no-const-vbv / sar=0 / overscan=0 / videoformat=5 / range=0 / colorprim=1 / transfer=1 / colormatrix=1 / chromaloc=0 / display-window=0 / cll=0,0 / min-luma=0 / max-luma=1023 / log2-max-poc-lsb=8 / vui-timing-info / vui-hrd-info / slices=1 / no-opt-qp-pps / no-opt-ref-list-length-pps / no-multi-pass-opt-rps / scenecut-bias=0.05 / hist-threshold=0.03 / no-opt-cu-delta-qp / no-aq-motion / no-hdr10 / no-hdr10-opt / no-dhdr10-opt / no-idr-recovery-sei / analysis-reuse-level=0 / analysis-save-reuse-level=0 / analysis-load-reuse-level=0 / scale-factor=0 / refine-intra=0 / refine-inter=0 / refine-mv=1 / refine-ctu-distortion=0 / no-limit-sao / ctu-info=0 / no-lowpass-dct / refine-analysis-type=0 / copy-pic=1 / max-ausize-factor=1.0 / no-dynamic-refine / no-single-sei / no-hevc-aq / no-svt / no-field / qp-adaptation-range=1.00 / scenecut-aware-qp=0 / conformance-window-right-offset=0 / conformance-window-bottom-offset=0 / decoder-max-rate=0 / no-vbv-live-multi-pass
Language : English
Default : Yes
Forced : No
Color range : Limited
Color primaries : BT.709
Transfer characteristics : BT.709
Matrix coefficients : BT.709

Audio #1
ID : 2
Format : AC-3
Format/Info : Audio Coding 3
Format settings, Endianness : Big
Codec ID : A_AC3
Duration : 1 h 5 min
Bit rate mode : Constant
Bit rate : 384 kb/s
Channel(s) : 6 channels
Channel positions : Front: L C R, Side: L R, LFE
Sampling rate : 48.0 kHz
Frame rate : 31.250 FPS (1536 SPF)
Bit depth : 16 bits
Compression mode : Lossy
Stream size : 180 MiB (8%)
Title : Дубляж [Кравец]
Language : Russian
Service kind : Complete Main
Default : Yes
Forced : No

Audio #2
ID : 3
Format : AC-3
Format/Info : Audio Coding 3
Format settings, Endianness : Big
Codec ID : A_AC3
Duration : 1 h 5 min
Bit rate mode : Constant
Bit rate : 384 kb/s
Channel(s) : 2 channels
Channel positions : Front: L R
Sampling rate : 48.0 kHz
Frame rate : 31.250 FPS (1536 SPF)
Bit depth : 16 bits
Compression mode : Lossy
Stream size : 180 MiB (8%)
Title : MVO [LostFilm]
Language : Russian
Service kind : Complete Main
Default : No
Forced : No

Audio #3
ID : 4
Format : E-AC-3
Format/Info : Enhanced Audio Coding 3
Format profile : E-AC-3+Atmos / E-AC-3
Format settings, Endianness : Big
Codec ID : A_EAC3
Duration : 1 h 5 min
Bit rate mode : Constant
Bit rate : 768 kb/s
Channel(s) : 15 objects / 6 channels
Channel positions : 15 objects / Front: L C R, Side: L R, LFE
Sampling rate : 48.0 kHz
Frame rate : 187.500 FPS (256 SPF)
Compression mode : Lossy
Stream size : 360 MiB (17%)
Title : Original
Language : English
Service kind : Complete Main
Default : No
Forced : No

Text #1
ID : 5
Format : UTF-8
Codec ID : S_TEXT/UTF8
Codec ID/Info : UTF-8 Plain Text
Duration : 40 min 31 s
Bit rate : 4 b/s
Count of elements : 27
Stream size : 1.40 KiB (0%)
Title : Forced
Language : Russian
Default : Yes
Forced : No

Text #2
ID : 6
Format : UTF-8
Codec ID : S_TEXT/UTF8
Codec ID/Info : UTF-8 Plain Text
Duration : 1 h 2 min
Bit rate : 84 b/s
Count of elements : 609
Stream size : 38.7 KiB (0%)
Title : Full [Amedia]
Language : Russian
Default : No
Forced : No

Text #3
ID : 7
Format : UTF-8
Codec ID : S_TEXT/UTF8
Codec ID/Info : UTF-8 Plain Text
Duration : 1 h 2 min
Bit rate : 85 b/s
Count of elements : 615
Stream size : 39.2 KiB (0%)
Title : Full [HBO]
Language : Russian
Default : No
Forced : No

Text #4
ID : 8
Format : UTF-8
Codec ID : S_TEXT/UTF8
Codec ID/Info : UTF-8 Plain Text
Duration : 1 h 2 min
Bit rate : 52 b/s
Count of elements : 690
Stream size : 24.1 KiB (0%)
Title : Full
Language : English
Default : No
Forced : No

Text #5
ID : 9
Format : UTF-8
Codec ID : S_TEXT/UTF8
Codec ID/Info : UTF-8 Plain Text
Duration : 1 h 5 min
Bit rate : 60 b/s
Count of elements : 946
Stream size : 28.7 KiB (0%)
Title : SDH
Language : English
Default : No
Forced : No

Menu
00:00:00.000 : en:Chapter 1
01:03:27.000 : en:Credits

Когда раздача ведётся путём добавления новых серий, при каждом добавлении создётся новый торрент. Чтобы начать докачку новой серии, пользователям необходимо сделать следующее:
(1) остановить скачивание,
(2) удалить старый торрент у себя из клиента (старые серии удалять не надо),
(3) скачать новый торрент и запустить его у себя в клиенте вместо старого, при этом указать клиенту путь в старую папку, куда и должно происходить скачивание новых серий.
Ваш клиент при этом должен произвести хеширование (проверку) старой папки (если не производит сам - помогите ему сделать это), и будет докачивать только те серии, которых у вас ещё нет. Старые серии при этом не удаляются, а продолжают раздаваться!
Eсли вы уже удалили старые серии, то предотвратить повторную закачку старых серий можно, отжав галочку в соответсвующих местах при запуске нового торрента. По возможности, желательно не удалять старые серии как можно дольше, чтобы релизёр не столько продолжал раздавать старые серии, а смог сконцентрироваться на новых.




Скачать Дом дракона через торрент https://i7-imageban-ru.translate.goog/out/2022/08/22/8d7152d046a5ad5a1446fca048aa4284.png Скачать, смотреть онлайн Дом дракона бесплантно в хорошем качестве Описание: Приквел самого масштабного сериала 2010-х «Игра престолов». История разворачивается за 200 лет до событий саги «Песнь льда и ... 9.4 10 9
Торрент: Зарегистрирован [2022-10-25 15:35] · скачан: 355 раз
Статус: √ проверено
Размер: 18.19 GB
Как cкачать? Как скачать Дом дракона через торрент | UTorrent

% Раздел Тема Автор DL S | L
Игра престолов [ 11.08 GB ] Дом дракона / House of the Dragon / Сезон: 1 / Серии: 1-10 из 10 | Amedia | DLRip-AVC bober100 Скачать
12 | 0
Игра престолов [ 8.8 GB ] Дом дракона / House of the Dragon / Сезон: 1 / Серии: 1-10 из 10 | Amedia | DLRip bober100 Скачать
6 | 1
Игра престолов [ 92.6 GB ] Дом дракона / House of the Dragon / Сезон: 1 / Серии: 1-10 из 10 | Amedia | 2160p bober100 Скачать
3 | 0
Игра престолов [ 21.99 GB ] Дом дракона / House of the Dragon / Сезон: 1 / Серии: 1-9 из 10 | Jaskier | 1080p killermax2013 Скачать
1 | 0
Игра престолов [ 42.03 GB ] Дом дракона / House of the Dragon / Сезон: 1 / Серии: 1-10 из 10 | Amedia | 1080p bober100 Скачать
5 | 4
Игра престолов [ 40.38 GB ] Дом дракона / House of the Dragon / Сезон: 1 / Серии: 1-10 из 10 | LostFilm | 1080p bober100 Скачать
3 | 0
Игра престолов [ 7.67 GB ] Дом дракона / House of the Dragon / Сезон: 1 / Серии: 1-10 из 10 | LostFilm | DLRip bober100 Скачать
5 | 1

28-11-2019 20:33  


Отключить вcю реклaмy на сайте, в т.ч. и в плеере онлайн просмотра!

    Дорогой пользователь! Огромная просьба, поблагодарите релизера, оцените раздачу и оставьте свои комментарий, если Вы скачали Дом дракона через торрент бесплатно!!
    Комментировать посты могут только пользователи прошедшие не сложную регистрацию
    Показать сообщения:    


    Дом дракона через торрент
    Скачать бесплатно Дом дракона
    Дом дракона скачать торрент
    Дом дракона смотреть онлайн
    Cкачать фильм Дом дракона бесплатно
    Дом дракона скачать торрент в хорошем качестве
    Дом дракона смотреть онлайн бесплатно в хорошем качестве
    Вы не можете начинать темы
    Вы не можете отвечать на сообщения
    Вы не можете редактировать свои сообщения
    Вы не можете удалять свои сообщения
    Вы не можете голосовать в опросах
    Вы не можете прикреплять файлы к сообщениям
    Вы можете скачивать файлы
    Дом дракона / House of the Dragon / Сезон: 1 / Серии: 1-10 из 10 [2022, Фэнтези, боевик, драма, мелодрама, WEB-DL-HEVC 1080p] Дубляж [Кравец / Amedia] +MVO [LostFilm] смотреть онлайн, скачать торрент picoco.icu