Достать ножи: Стеклянная луковица

MVO

Добыча

Дубляж

Уэнсдэй

1 сезон

Тор

Дубляж

13 клиническая

1 сезон

Жестокая ночь

MVO

Одни из нас

1 сезон

Deluxe

pack

Рекомендуем

30

Пиратка

ВАЖНО

ВАЖНО

Ghostwire

Пиратка

jed

RePack

nioh2

RePack

RDR2

RePack

NEED FOR SPEED™ PAYBACK

RePack

скачать торрент

Кинопоиск HD

Острые козырьки 6 сезон

6 сезон

FAR CRY 6

RePack

скачать торрент

Лицензия

скачать торрент

MVO

1

1 сезон

скачать торрент

1 сезон

скачать торрент

Лицензия

  

Блондинка / Blonde (Эндрю Доминик) [2022, Биография, драма, WEB-DLRip-AVC] Дубляж [Red Head Sound]

Блондинка через торрент pb.wtf

Раздают: 5 [ 0 KB/s ]
Размер: 2.84 GB | Добавлен: 3 мес. 10 д. назад | Торрент скачан:247 раз
Смотреть онлайн | Скачать | Поддержите нас   

25-10-2022 17:30 Блондинка Скачать торрент  

Блондинка
Blonde

Год выпуска: 2022
Страна: США
Выпущено: Plan B Entertainment
Жанр: Биография, драма
Продолжительность: 02:47:28
Перевод: Дублированный | Red Head Sound
Субтитры: Русские (Forced, Full), английские

Режиссер: Эндрю Доминик

rating

В ролях: Ана де Армас, Гаррет Диллахант, Бобби Каннавале, Эдриан Броуди, Джулианна Николсон, Скут МакНэри, Сара Пэкстон, Ребекка Висоцки, Завьер Сэмюэл, Тоби Хасс, Люси ДеВито, Катрин Дент, Спенсер Гаррет, Каспар Филлипсон, Дэн Батлер

Описание: Байопик о жизни Нормы Джин Бейкер, ставшей самой известной блондинкой в истории Голливуда Мэрилин Монро. Ради этого ей пришлось проделать тяжелый путь от простой девчонки, росшей с безумной мамашей, к статусу секс-символа, заработанному через боль и сломанную психику. Экранизация одноимённого романа Джойс Кэрол Оутс.

Качество: WEB-DLRip-AVC
Формат: MKV

Видео: MPEG-4 AVC, 1024x576 at 24.000 fps, [email protected], ~1592 kbps
Аудио 1: AC3, 6 ch, ~448 kbps - | Русский |
Аудио 2: AC3, 6 ch, ~384 kbps - | Английский |
скриншот  скриншот  скриншот  скриншот  

x264 [info]: frame I:1289 Avg QP:14.44 size: 39378
x264 [info]: frame P:43132 Avg QP:17.97 size: 18603
x264 [info]: frame B:196734 Avg QP:19.77 size: 5829
x264 [info]: consecutive B-frames: 1.5% 1.5% 4.1% 10.9% 10.8% 39.1% 8.6% 2.1% 2.3% 5.2% 3.5% 1.4% 0.9%

General
Unique ID : 312618286257299450798326402130788042150 (0xEB30178491B6B690FBF01ADEC58545A6)
Complete name : D:Blonde.2022.NF.Дубляж.WEB-DLRip.x264.seleZen.mkv
Format : Matroska
Format version : Version 4
File size : 2.84 GiB
Duration : 2 h 47 min
Overall bit rate : 2 427 kb/s
Movie name : Blonde.2022.NF.Дубляж.WEB-DLRip.x264.seleZen
Encoded date : UTC 2022-10-24 17:03:04
Writing application : mkvmerge v71.0.0 ('Altitude') 64-bit
Writing library : libebml v1.4.4 + libmatroska v1.7.1
Cover : Yes
Attachments : cover.jpg / small_cover.jpg

Video
ID : 1
Format : AVC
Format/Info : Advanced Video Codec
Format profile : [email protected]
Format settings : CABAC / 10 Ref Frames
Format settings, CABAC : Yes
Format settings, Reference : 10 frames
Codec ID : V_MPEG4/ISO/AVC
Duration : 2 h 47 min
Bit rate : 1 592 kb/s
Width : 1 024 pixels
Height : 576 pixels
Display aspect ratio : 16:9
Frame rate mode : Constant
Frame rate : 24.000 FPS
Color space : YUV
Chroma subsampling : 4:2:0
Bit depth : 8 bits
Scan type : Progressive
Bits/(Pixel*Frame) : 0.112
Stream size : 1.86 GiB (66%)
Title : -=DoMiNo=-
Writing library : x264 core 164 r3099+55M 141af3f t_mod_New | by -=DoMiNo=- | X86_64
Encoding settings : cabac=1 / ref=10 / deblock=1:0:0 / analyse=0x3:0x133 / me=umh / subme=10 / psy=1 / fade_compensate=0.00 / psy_rd=1.00:0.00 / mixed_ref=1 / me_range=32 / chroma_me=1 / trellis=2 / 8x8dct=1 / cqm=0 / deadzone=21,11 / fast_pskip=1 / chroma_qp_offset=-2 / threads=18 / lookahead_threads=4 / sliced_threads=0 / nr=0 / decimate=1 / interlaced=0 / bluray_compat=0 / constrained_intra=0 / fgo=0 / bframes=12 / b_pyramid=2 / b_adapt=2 / b_bias=0 / direct=1 / weightb=1 / open_gop=0 / weightp=2 / keyint=250 / keyint_min=24 / scenecut=40 / intra_refresh=0 / rc_lookahead=60 / rc=crf / mbtree=0 / crf=19.5000 / qcomp=0.65 / qpmin=0:0:0 / qpmax=69:69:69 / qpstep=4 / vbv_maxrate=50000 / vbv_bufsize=62500 / crf_max=0.0 / nal_hrd=none / filler=0 / ip_ratio=1.40 / pb_ratio=1.30 / aq=1:0.80 / aq-sensitivity=10.00 / aq-factor=1.00:1.00:1.00 / aq2=0 / aq3=0
Language : English
Default : Yes
Forced : No

Audio #1
ID : 2
Format : AC-3
Format/Info : Audio Coding 3
Commercial name : Dolby Digital
Codec ID : A_AC3
Duration : 2 h 47 min
Bit rate mode : Constant
Bit rate : 448 kb/s
Channel(s) : 6 channels
Channel layout : L R C LFE Ls Rs
Sampling rate : 48.0 kHz
Frame rate : 31.250 FPS (1536 SPF)
Compression mode : Lossy
Stream size : 537 MiB (18%)
Title : DUB_[RHS]
Language : Russian
Service kind : Complete Main
Default : Yes
Forced : No

Audio #2
ID : 3
Format : AC-3
Format/Info : Audio Coding 3
Commercial name : Dolby Digital
Codec ID : A_AC3
Duration : 2 h 47 min
Bit rate mode : Constant
Bit rate : 384 kb/s
Channel(s) : 6 channels
Channel layout : L R C LFE Ls Rs
Sampling rate : 48.0 kHz
Frame rate : 31.250 FPS (1536 SPF)
Compression mode : Lossy
Stream size : 460 MiB (16%)
Title : Original
Language : English
Service kind : Complete Main
Default : No
Forced : No

Text #1
ID : 4
Format : UTF-8
Codec ID : S_TEXT/UTF8
Codec ID/Info : UTF-8 Plain Text
Duration : 2 h 45 min
Bit rate : 1 b/s
Count of elements : 27
Stream size : 1.53 KiB (0%)
Title : Forced
Language : Russian
Default : Yes
Forced : No

Text #2
ID : 5
Format : UTF-8
Codec ID : S_TEXT/UTF8
Codec ID/Info : UTF-8 Plain Text
Duration : 2 h 45 min
Bit rate : 53 b/s
Count of elements : 1422
Stream size : 65.1 KiB (0%)
Title : Full
Language : Russian
Default : No
Forced : No

Text #3
ID : 6
Format : UTF-8
Codec ID : S_TEXT/UTF8
Codec ID/Info : UTF-8 Plain Text
Duration : 2 h 35 min
Bit rate : 34 b/s
Count of elements : 1319
Stream size : 39.6 KiB (0%)
Title : Full
Language : English
Default : No
Forced : No

Text #4
ID : 7
Format : UTF-8
Codec ID : S_TEXT/UTF8
Codec ID/Info : UTF-8 Plain Text
Duration : 2 h 38 min
Bit rate : 44 b/s
Count of elements : 1687
Stream size : 51.2 KiB (0%)
Title : SDH
Language : English
Default : No
Forced : No

Menu
00:00:00.000 : en:Глава 01
00:12:30.000 : en:Глава 02
00:25:00.000 : en:Глава 03
00:37:30.000 : en:Глава 04
00:50:00.000 : en:Глава 05
01:02:30.000 : en:Глава 06
01:15:00.000 : en:Глава 07
01:27:30.000 : en:Глава 08
01:40:00.000 : en:Глава 09
01:52:30.000 : en:Глава 10
02:05:00.000 : en:Глава 11
02:17:30.000 : en:Глава 12
02:30:00.000 : en:Глава 13
02:42:30.000 : en:Глава 14




Скачать Блондинка через торрент https://i120.fastpic.org/big/2022/1024/99/364d812ac8094e959c9732965abef799.png Скачать, смотреть онлайн Блондинка бесплантно в хорошем качестве Описание: Байопик о жизни Нормы Джин Бейкер, ставшей самой известной блондинкой в истории Голливуда Мэрилин Монро. Ради этого ей пришлось ... 9.8 10 6
Торрент: Зарегистрирован [2022-10-25 17:30] · скачан: 247 раз
Статус: √ проверено
Размер: 2.84 GB
Как cкачать? Как скачать Блондинка через торрент | UTorrent

% Раздел Тема Автор DL S | L
Фильмы (WEB-DL 720p, 1080p) [ 8.88 GB ] Блондинка / Blonde | Jaskier | 1080p bober100 Скачать
8 | 0
Фильмы (WEB-DL 720p, 1080p) [ 8.28 GB ] Блондинка / Blonde | DUB | 1080p bober100 Скачать
3 | 0

28-11-2019 20:33  


Отключить вcю реклaмy на сайте, в т.ч. и в плеере онлайн просмотра!

    Дорогой пользователь! Огромная просьба, поблагодарите релизера, оцените раздачу и оставьте свои комментарий, если Вы скачали Блондинка через торрент бесплатно!!
    Комментировать посты могут только пользователи прошедшие не сложную регистрацию
    Показать сообщения:    


    Блондинка через торрент
    Скачать бесплатно Блондинка
    Блондинка скачать торрент
    Блондинка смотреть онлайн
    Cкачать фильм Блондинка бесплатно
    Блондинка скачать торрент в хорошем качестве
    Блондинка смотреть онлайн бесплатно в хорошем качестве
    Вы можете начинать темы
    Вы можете отвечать на сообщения
    Вы не можете редактировать свои сообщения
    Вы не можете удалять свои сообщения
    Вы не можете голосовать в опросах
    Вы не можете прикреплять файлы к сообщениям
    Вы можете скачивать файлы
    Блондинка / Blonde [2022, Биография, драма, WEB-DLRip-AVC] Дубляж [Red Head Sound] смотреть онлайн, скачать торрент picoco.icu