Достать ножи: Стеклянная луковица

MVO

Добыча

Дубляж

Уэнсдэй

1 сезон

Тор

Дубляж

13 клиническая

1 сезон

Жестокая ночь

MVO

Одни из нас

1 сезон

Deluxe

pack

Рекомендуем

30

Пиратка

ВАЖНО

ВАЖНО

Ghostwire

Пиратка

jed

RePack

nioh2

RePack

RDR2

RePack

NEED FOR SPEED™ PAYBACK

RePack

скачать торрент

Кинопоиск HD

Острые козырьки 6 сезон

6 сезон

FAR CRY 6

RePack

скачать торрент

Лицензия

скачать торрент

MVO

1

1 сезон

скачать торрент

1 сезон

скачать торрент

Лицензия

  

Блондинка / Blonde (Эндрю Доминик) [2022, Биография, драма, WEB-DL 1080p] Дубляж [Red Head Sound]

Блондинка через торрент pb.wtf

Раздают: 2 [ 143 KB/s ]
Размер: 8.28 GB | Добавлен: 3 мес. 10 д. назад | Торрент скачан:115 раз
Смотреть онлайн | Скачать | Поддержите нас   

25-10-2022 17:30 Блондинка Скачать торрент  

Блондинка
Blonde

Год выпуска: 2022
Страна: США
Выпущено: Plan B Entertainment
Жанр: Биография, драма
Продолжительность: 02:47:28
Перевод: Дублированный | Red Head Sound
Субтитры: отсутствуют

Режиссер: Эндрю Доминик

rating

В ролях: Ана де Армас, Гаррет Диллахант, Бобби Каннавале, Эдриан Броуди, Джулианна Николсон, Скут МакНэри, Сара Пэкстон, Ребекка Висоцки, Завьер Сэмюэл, Тоби Хасс, Люси ДеВито, Катрин Дент, Спенсер Гаррет, Каспар Филлипсон, Дэн Батлер

Описание: Байопик о жизни Нормы Джин Бейкер, ставшей самой известной блондинкой в истории Голливуда Мэрилин Монро. Ради этого ей пришлось проделать тяжелый путь от простой девчонки, росшей с безумной мамашей, к статусу секс-символа, заработанному через боль и сломанную психику. Экранизация одноимённого романа Джойс Кэрол Оутс.

Качество: WEB-DL 1080p
Формат: MKV

Видео: MPEG-4 AVC, 1920x1080, AVC, ~ 6294 Кбит/с, 24 fps
Аудио: 48 kHz, AC3 Dolby Digital, 3/2 (L, C, R, l, r) + LFE ch, ~640 Kbps
скриншот  скриншот  скриншот  скриншот  скриншот  

Общее
Уникальный идентификатор : 211602464383370012718018058333067879980 (0x9F3126F99B7E3A86ADBC2BF503B7262C)
Полное имя : D:Blonde.2022.1080p_[scarfilm.org].mkv
Формат : Matroska
Версия формата : Version 4
Размер файла : 8,28 Гбайт
Продолжительность : 2 ч. 47 м.
Режим общего битрейта : Переменный
Общий поток : 7 075 Кбит/сек
Дата кодирования : UTC 2022-10-24 11:06:09
Программа кодирования : mkvmerge v6.1.0 ('Old Devil') built on Mar 4 2013 09:10:42
Библиотека кодирования : libebml v1.3.0 + libmatroska v1.4.0

Видео
Идентификатор : 1
Формат : AVC
Формат/Информация : Advanced Video Codec
Профиль формата : [email protected]
Настройки формата : CABAC / 4 Ref Frames
Параметр CABAC формата : Да
Параметр RefFrames формата : 4 кадра
Идентификатор кодека : V_MPEG4/ISO/AVC
Продолжительность : 2 ч. 47 м.
Вид битрейта : Переменный
Битрейт : 6 294 Кбит/сек
Максимальный битрейт : 20,0 Мбит/сек
Ширина : 1 920 пикселей
Высота : 1 080 пикселей
Соотношение сторон : 16:9
Режим частоты кадров : Постоянный
Частота кадров : 24,000 кадра/сек
Цветовое пространство : YUV
Субдискретизация насыщенности : 4:2:0
Битовая глубина : 8 бит
Тип развёртки : Прогрессивная
Бит/(Пиксели*Кадры) : 0.126
Размер потока : 7,36 Гбайт (89%)
Библиотека кодирования : x264 core 148 r2727 7d026e8
Настройки программы : cabac=1 / ref=4 / deblock=1:0:0 / analyse=0x3:0x111 / me=umh / subme=10 / psy=1 / psy_rd=1.00:0.00 / mixed_ref=1 / me_range=120 / chroma_me=1 / trellis=2 / 8x8dct=1 / cqm=0 / deadzone=21,11 / fast_pskip=1 / chroma_qp_offset=-2 / threads=8 / lookahead_threads=2 / sliced_threads=0 / nr=0 / decimate=1 / interlaced=0 / bluray_compat=0 / stitchable=1 / constrained_intra=0 / bframes=16 / b_pyramid=2 / b_adapt=2 / b_bias=0 / direct=3 / weightb=1 / open_gop=0 / weightp=2 / keyint=240 / keyint_min=121 / scenecut=0 / intra_refresh=0 / rc_lookahead=240 / rc=crf / mbtree=1 / crf=16.0 / qcomp=0.50 / qpmin=6 / qpmax=51 / qpstep=4 / vbv_maxrate=20000 / vbv_bufsize=25000 / crf_max=0.0 / nal_hrd=vbr / filler=0 / ip_ratio=1.40 / aq=1:0.80
Язык : English
Default : Да
Forced : Нет

Аудио
Идентификатор : 2
Формат : AC-3
Формат/Информация : Audio Coding 3
Коммерческое название : Dolby Digital
Идентификатор кодека : A_AC3
Продолжительность : 2 ч. 47 м.
Вид битрейта : Постоянный
Битрейт : 640 Кбит/сек
Каналы : 6 каналов
Channel layout : L R C LFE Ls Rs
Частота : 48,0 КГц
Частота кадров : 31,250 кадров/сек (1536 SPF)
Метод сжатия : С потерями
Размер потока : 767 Мбайт (9%)
Заголовок : Дубляж - Red Head Sound
Язык : Russian
Service kind : Complete Main
Default : Да
Forced : Нет




Скачать Блондинка через торрент https://i120.fastpic.org/big/2022/1024/99/364d812ac8094e959c9732965abef799.png Скачать, смотреть онлайн Блондинка бесплантно в хорошем качестве Описание: Байопик о жизни Нормы Джин Бейкер, ставшей самой известной блондинкой в истории Голливуда Мэрилин Монро. Ради этого ей пришлось ... 10 10 4
Торрент: Зарегистрирован [2022-10-25 17:30] · скачан: 115 раз
Статус: √ проверено
Размер: 8.28 GB
Как cкачать? Как скачать Блондинка через торрент | UTorrent

% Раздел Тема Автор DL S | L
Фильмы (WEB-DL 720p, 1080p) [ 8.88 GB ] Блондинка / Blonde | Jaskier | 1080p bober100 Скачать
6 | 0
Фильмы 2022-2023 [DVDrip, WEB-DLRip, HDrip] (DUB, MVO) [ 2.84 GB ] Блондинка / Blonde | DUB | DLRip-AVC bober100 Скачать
7 | 0

28-11-2019 20:33  


Отключить вcю реклaмy на сайте, в т.ч. и в плеере онлайн просмотра!

    Дорогой пользователь! Огромная просьба, поблагодарите релизера, оцените раздачу и оставьте свои комментарий, если Вы скачали Блондинка через торрент бесплатно!!
    Комментировать посты могут только пользователи прошедшие не сложную регистрацию
    Показать сообщения:    


    Блондинка через торрент
    Скачать бесплатно Блондинка
    Блондинка скачать торрент
    Блондинка смотреть онлайн
    Cкачать фильм Блондинка бесплатно
    Блондинка скачать торрент в хорошем качестве
    Блондинка смотреть онлайн бесплатно в хорошем качестве
    Вы не можете начинать темы
    Вы не можете отвечать на сообщения
    Вы не можете редактировать свои сообщения
    Вы не можете удалять свои сообщения
    Вы не можете голосовать в опросах
    Вы не можете прикреплять файлы к сообщениям
    Вы можете скачивать файлы
    Блондинка / Blonde [2022, Биография, драма, WEB-DL 1080p] Дубляж [Red Head Sound] смотреть онлайн, скачать торрент picoco.icu