Достать ножи: Стеклянная луковица

MVO

Добыча

Дубляж

Уэнсдэй

1 сезон

Тор

Дубляж

13 клиническая

1 сезон

Жестокая ночь

MVO

Одни из нас

1 сезон

Deluxe

pack

Рекомендуем

30

Пиратка

ВАЖНО

ВАЖНО

Ghostwire

Пиратка

jed

RePack

nioh2

RePack

RDR2

RePack

NEED FOR SPEED™ PAYBACK

RePack

скачать торрент

Кинопоиск HD

Острые козырьки 6 сезон

6 сезон

FAR CRY 6

RePack

скачать торрент

Лицензия

скачать торрент

MVO

1

1 сезон

скачать торрент

1 сезон

скачать торрент

Лицензия

  

Бивис и Баттхед / Beavis and Butt-Head / Сезон: 1 / Серии: 1-23 из 23 (Майк Джадж) [2022, Мультсериал, комедия, музыка, WEB-DL 1080p] MVO [TVShows]

Бивис и Баттхед через торрент pb.wtf

Раздают: 2 [ 0 KB/s ]
Размер: 9.81 GB | Добавлен: 3 мес. 12 д. назад | Торрент скачан:101 раз
Смотреть онлайн | Скачать | Поддержите нас   

25-10-2022 17:42 Бивис и Баттхед Скачать торрент  

Бивис и Баттхед
Beavis and Butt-Head

Год выпуска: 2022
Страна: США
Выпущено: Judgmental Films, Titmouse
Жанр: Мультсериал, комедия, музыка
Продолжительность: ~ 00:12:00 серия
Перевод: Профессиональный (многоголосый) | TVShows
Субтитры: Aнглийские

Режиссер: Майк Джадж

rating

В ролях: Майк Джадж, Кристофор Браун, Дэйл Рево, Трейси Грэндстафф, Тоби Хасс, Адам Уэлш, Кристин Уолтерс, Лори Нассо, Кэтлин Барр

Описание: Культовый анимационный дуэт вернулся и стал еще тупее, чем когда-либо. Феномены поп-культуры 90-х возвращаются, озвученные создателем Майком Джаджем, чтобы сбить с толку здравый смысл, мучить друг друга и продемонстрировать одну из самых глупых комедий, которые только можно себе представить.

Качество: WEB-DL 1080p
Формат: MKV

Видео: MPEG-4 AVC, ~ 4000 kbps avg, 1920x1080 at 24 fps
Аудио#1: Russian: 48 kHz, AC3, 2/0 (L,R) ch, ~192 kbps avg
Аудио#2: English: 48 kHz, E-AC3, 3/2 (L,C,R,l,r) + LFE ch, ~640 kbps avg
скриншот  скриншот  скриншот  скриншот  

Общее
Уникальный идентификатор : 316557000188968101571531150022938398599 (0xEE26A91B91E3881C854893AE10DB0F87)
Полное имя : D:Mike.Judges.Beavis.and.Butt-Head.S01.1080p.TVShows\Mike.Judge's.Beavis.and.Butt-Head.S01E01.Escape.Room.mkv
Формат : Matroska
Версия формата : Version 4
Размер файла : 320 Мбайт
Продолжительность : 9 м. 20 с.
Общий поток : 4 793 Кбит/сек
Дата кодирования : UTC 2022-08-07 16:05:15
Программа кодирования : mkvmerge v33.1.0 ('Primrose') 64-bit
Библиотека кодирования : libebml v1.3.7 + libmatroska v1.5.0

Видео
Идентификатор : 1
Формат : AVC
Формат/Информация : Advanced Video Codec
Профиль формата : [email protected]
Настройки формата : CABAC / 4 Ref Frames
Параметр CABAC формата : Да
Параметр RefFrames формата : 4 кадра
Идентификатор кодека : V_MPEG4/ISO/AVC
Продолжительность : 9 м. 20 с.
Вид битрейта : Постоянный
Битрейт : 3 965 Кбит/сек
Номинальный битрейт : 10 000 Кбит/сек
Ширина : 1 920 пикселей
Высота : 1 080 пикселей
Соотношение сторон : 16:9
Режим частоты кадров : Постоянный
Частота кадров : 24,000 кадра/сек
Цветовое пространство : YUV
Субдискретизация насыщенности : 4:2:0
Битовая глубина : 8 бит
Тип развёртки : Прогрессивная
Бит/(Пиксели*Кадры) : 0.078
Размер потока : 258 Мбайт (81%)
Язык : English
Default : Да
Forced : Нет
Цветовой диапазон : Limited
Основные цвета : BT.709
Характеристики трансфера : BT.709
Коэффициенты матрицы : BT.709

Аудио #1
Идентификатор : 2
Формат : AC-3
Формат/Информация : Audio Coding 3
Коммерческое название : Dolby Digital
Идентификатор кодека : A_AC3
Продолжительность : 9 м. 20 с.
Вид битрейта : Постоянный
Битрейт : 192 Кбит/сек
Каналы : 2 канала
Channel layout : L R
Частота : 48,0 КГц
Частота кадров : 31,250 кадров/сек (1536 SPF)
Метод сжатия : С потерями
Размер потока : 12,8 Мбайт (4%)
Заголовок : MVO TVShows
Язык : Russian
Service kind : Complete Main
Default : Да
Forced : Нет

Аудио #2
Идентификатор : 3
Формат : E-AC-3
Формат/Информация : Enhanced AC-3
Коммерческое название : Dolby Digital Plus
Идентификатор кодека : A_EAC3
Продолжительность : 9 м. 20 с.
Вид битрейта : Постоянный
Битрейт : 640 Кбит/сек
Каналы : 6 каналов
Channel layout : L R C LFE Ls Rs
Частота : 48,0 КГц
Частота кадров : 31,250 кадров/сек (1536 SPF)
Метод сжатия : С потерями
Размер потока : 42,7 Мбайт (13%)
Язык : English
Service kind : Complete Main
Default : Нет
Forced : Нет

Текст #1
Идентификатор : 4
Формат : UTF-8
Идентификатор кодека : S_TEXT/UTF8
Идентификатор кодека/Информация : UTF-8 Plain Text
Язык : English
Default : Нет
Forced : Нет

Текст #2
Идентификатор : 5
Формат : UTF-8
Идентификатор кодека : S_TEXT/UTF8
Идентификатор кодека/Информация : UTF-8 Plain Text
Заголовок : SDH
Язык : English
Default : Нет
Forced : Нет

Когда раздача ведётся путём добавления новых серий, при каждом добавлении создётся новый торрент. Чтобы начать докачку новой серии, пользователям необходимо сделать следующее:
(1) остановить скачивание,
(2) удалить старый торрент у себя из клиента (старые серии удалять не надо),
(3) скачать новый торрент и запустить его у себя в клиенте вместо старого, при этом указать клиенту путь в старую папку, куда и должно происходить скачивание новых серий.
Ваш клиент при этом должен произвести хеширование (проверку) старой папки (если не производит сам - помогите ему сделать это), и будет докачивать только те серии, которых у вас ещё нет. Старые серии при этом не удаляются, а продолжают раздаваться!
Eсли вы уже удалили старые серии, то предотвратить повторную закачку старых серий можно, отжав галочку в соответсвующих местах при запуске нового торрента. По возможности, желательно не удалять старые серии как можно дольше, чтобы релизёр не столько продолжал раздавать старые серии, а смог сконцентрироваться на новых.




Скачать Бивис и Баттхед через торрент https://i6-imageban-ru.translate.goog/out/2022/08/21/0e3f8cda4ca27c802122fc0618abe069.jpg Скачать, смотреть онлайн Бивис и Баттхед бесплантно в хорошем качестве Описание: Культовый анимационный дуэт вернулся и стал еще тупее, чем когда-либо. Феномены поп-культуры 90-х возвращаются, озвученные ... 10 10 5
Торрент: Зарегистрирован [2022-10-25 17:42] · скачан: 101 раз
Статус: √ проверено
Размер: 9.81 GB
Как cкачать? Как скачать Бивис и Баттхед через торрент | UTorrent

% Раздел Тема Автор DL S | L
Иностранные мультфильмы [ 1.37 GB ] Бивис и Баттхед уделывают Америку / Beavis and Butt-Head Do America | | DVDRip anton41159 Скачать
1 | 0

28-11-2019 20:33  


Отключить вcю реклaмy на сайте, в т.ч. и в плеере онлайн просмотра!

    Дорогой пользователь! Огромная просьба, поблагодарите релизера, оцените раздачу и оставьте свои комментарий, если Вы скачали Бивис и Баттхед через торрент бесплатно!!
    Комментировать посты могут только пользователи прошедшие не сложную регистрацию
    Показать сообщения:    


    Бивис и Баттхед через торрент
    Скачать бесплатно Бивис и Баттхед
    Бивис и Баттхед скачать торрент
    Бивис и Баттхед смотреть онлайн
    Cкачать фильм Бивис и Баттхед бесплатно
    Бивис и Баттхед скачать торрент в хорошем качестве
    Бивис и Баттхед смотреть онлайн бесплатно в хорошем качестве
    Вы не можете начинать темы
    Вы не можете отвечать на сообщения
    Вы не можете редактировать свои сообщения
    Вы не можете удалять свои сообщения
    Вы не можете голосовать в опросах
    Вы не можете прикреплять файлы к сообщениям
    Вы можете скачивать файлы
    Бивис и Баттхед / Beavis and Butt-Head / Сезон: 1 / Серии: 1-23 из 23 [2022, Мультсериал, комедия, музыка, WEB-DL 1080p] MVO [TVShows] смотреть онлайн, скачать торрент picoco.icu