Достать ножи: Стеклянная луковица

MVO

Добыча

Дубляж

Уэнсдэй

1 сезон

Тор

Дубляж

13 клиническая

1 сезон

Жестокая ночь

MVO

Одни из нас

1 сезон

Deluxe

pack

Рекомендуем

30

Пиратка

ВАЖНО

ВАЖНО

Ghostwire

Пиратка

jed

RePack

nioh2

RePack

RDR2

RePack

NEED FOR SPEED™ PAYBACK

RePack

скачать торрент

Кинопоиск HD

Острые козырьки 6 сезон

6 сезон

FAR CRY 6

RePack

скачать торрент

Лицензия

скачать торрент

MVO

1

1 сезон

скачать торрент

1 сезон

скачать торрент

Лицензия

  

Однажды в Техасе / Death in Texas (Скотт Виндхаузер) [2020, Боевик, драма, WEB-DL 1080p] Дубляж [Лицензия]

Однажды в Техасе через торрент pb.wtf

Раздают: 1 [ 0 KB/s ]
Размер: 7.3 GB | Добавлен: 3 мес. 3 д. назад | Торрент скачан:52 раза
Смотреть онлайн | Скачать | Поддержите нас   

26-10-2022 23:03 Однажды в Техасе Скачать торрент  

Однажды в Техасе
Death in Texas

Год выпуска: 2020
Страна: США
Студия: BrandTone Films, Ahuevo Films
Жанр: Боевик, драма
Продолжительность: 01:41:23
Перевод: Дублированный | Лицензия
Субтитры: Английские

Режиссер: Скотт Виндхаузер

rating

В ролях: Лара Флинн Бойл, Стивен Лэнг, Брюс Дерн, Джон Эштон, Кларк Харрис, Ронни Джин Блевинс, Сэм Дэйли, Дэниэл Стивен Гонсалес, Вероника Бёрджесс, Крэйг Най

Описание: После семи лет заключения Билли Уокер наконец-то выходит из тюрьмы. Дома он узнает, что его мать смертельно больна. Врачи говорят, что жить ей осталось совсем немного и найти донора в такие короткие сроки будет трудно. Билли решает взять ситуацию в свои руки и готов на все, чтобы спасти свою мать. Но для бывшего заключенного есть только один способ быстро найти деньги.

Качество: WEB-DL 1080p
Формат: MKV

Видео: MPEG-4 AVC, ~ 9281 Kb/s, 1920x816, 23.976 fps
Аудио #01: 48 kHz, AC3, 5.1, 384 Kbps | Дублированный | Лицензия | RUS |
Аудио #02: 48 kHz, E-AC3, 5.1, 640 Kbps | Оригинал | ENG |
скриншот  скриншот  скриншот  скриншот  

Complete name: Odnazhdyi.v.Tehase.2021.WEB-DL.1080p.ELEKTRI4KA.UNIONGANG.mkv
Format: Matroska
Format version: Version 4
File size: 7.30 GiB
Duration: 1 h 41 min
Overall bit rate: 10.3 Mb/s
Movie name: Odnazhdyi.v.Tehase.2021.WEB-DL.1080p.ELEKTRI4KA.UNIONGANG.
Encoded date: UTC 2022-10-26 19:47:11
Writing application: mkvmerge v8.3.0 ('Over the Horizon') 32bit
Writing library: libebml v1.3.1 + libmatroska v1.4.2

Video
ID: 1
Format: AVC
Format/Info: Advanced Video Codec
Format profile: [email protected]
Format settings: CABAC / 4 Ref Frames
Format settings, CABAC: Yes
Format settings, Reference frames: 4 frames
Codec ID: V_MPEG4/ISO/AVC
Duration: 1 h 41 min
Bit rate mode: Constant
Bit rate: 9 281 kb/s
Nominal bit rate: 10 000 kb/s
Width: 1 920 pixels
Height: 816 pixels
Display aspect ratio: 2.35:1
Frame rate mode: Constant
Frame rate: 23.976 (24000/1001) FPS
Color space: YUV
Chroma subsampling: 4:2:0
Bit depth: 8 bits
Scan type: Progressive
Bits/(Pixel*Frame): 0.247
Stream size: 6.57 GiB (90%)
Language: English
Default: Yes
Forced: No
Color range: Limited
Color primaries: BT.709
Transfer characteristics: BT.709
Matrix coefficients: BT.709

Audio #1
ID: 2
Format: AC-3
Format/Info: Audio Coding 3
Commercial name: Dolby Digital
Codec ID: A_AC3
Duration: 1 h 41 min
Bit rate mode: Constant
Bit rate: 384 kb/s
Channel(s): 6 channels
Channel layout: L R C LFE Ls Rs
Sampling rate: 48.0 kHz
Frame rate: 31.250 FPS (1536 SPF)
Compression mode: Lossy
Stream size: 278 MiB (4%)
Title: Дубляж
Language: Russian
Service kind: Complete Main
Default: Yes
Forced: Yes

Audio #2
ID: 3
Format: E-AC-3
Format/Info: Enhanced AC-3
Commercial name: Dolby Digital Plus
Codec ID: A_EAC3
Duration: 1 h 41 min
Bit rate mode: Constant
Bit rate: 640 kb/s
Channel(s): 6 channels
Channel layout: L R C LFE Ls Rs
Sampling rate: 48.0 kHz
Frame rate: 31.250 FPS (1536 SPF)
Compression mode: Lossy
Stream size: 464 MiB (6%)
Title: Original
Language: English
Service kind: Complete Main
Default: No
Forced: No

Text
ID: 4
Format: UTF-8
Codec ID: S_TEXT/UTF8
Codec ID/Info: UTF-8 Plain Text
Duration: 1 h 40 min
Bit rate: 57 b/s
Count of elements: 1530
Stream size: 42.4 KiB (0%)
Title: English
Language: English
Default: No
Forced: No




Скачать Однажды в Техасе через торрент https://i120.fastpic.org/big/2022/1026/66/de65869153ac64bb44d1d88b52a81366.png Скачать, смотреть онлайн Однажды в Техасе бесплантно в хорошем качестве Описание: После семи лет заключения Билли Уокер наконец-то выходит из тюрьмы. Дома он узнает, что его мать смертельно больна. Врачи ... 10 10 4
Торрент: Зарегистрирован [2022-10-26 23:03] · скачан: 52 раз
Статус: √ проверено
Размер: 7.3 GB
Как cкачать? Как скачать Однажды в Техасе через торрент | UTorrent

% Раздел Тема Автор DL S | L
Фильмы 2019-2020 [DVDrip, WEB-DLRip, HDrip] (DUB, MVO) [ 720 MB ] Однажды в Техасе / Death in Texas | Лицензия | DLRip, Дубляж, Лицензия coc900 Скачать
2 | 0
Фильмы 2019-2020 [DVDrip, WEB-DLRip, HDrip] (DUB, MVO) [ 1.46 GB ] Однажды в Техасе / Death in Texas | Лицензия | DLRip bober100 Скачать
3 | 0

28-11-2019 20:33  


Отключить вcю реклaмy на сайте, в т.ч. и в плеере онлайн просмотра!

27-10-2022 07:56 Однажды в Техасе Скачать торрент  

для бывшего заключенного есть только один способ быстро найти деньги: взять быстозайм! (спонсор показа - совкомбанк)



27-10-2022 13:46 Однажды в Техасе Скачать торрент  

Но для бывшего заключенного есть только один способ быстро найти деньги.- пойти в ЧВК ..если мама дождется.)



    Дорогой пользователь! Огромная просьба, поблагодарите релизера, оцените раздачу и оставьте свои комментарий, если Вы скачали Однажды в Техасе через торрент бесплатно!!
    Комментировать посты могут только пользователи прошедшие не сложную регистрацию
    Показать сообщения:    


    Однажды в Техасе через торрент
    Скачать бесплатно Однажды в Техасе
    Однажды в Техасе скачать торрент
    Однажды в Техасе смотреть онлайн
    Cкачать фильм Однажды в Техасе бесплатно
    Однажды в Техасе скачать торрент в хорошем качестве
    Однажды в Техасе смотреть онлайн бесплатно в хорошем качестве
    Вы не можете начинать темы
    Вы не можете отвечать на сообщения
    Вы не можете редактировать свои сообщения
    Вы не можете удалять свои сообщения
    Вы не можете голосовать в опросах
    Вы не можете прикреплять файлы к сообщениям
    Вы можете скачивать файлы
    Однажды в Техасе / Death in Texas [2020, Боевик, драма, WEB-DL 1080p] Дубляж [Лицензия] смотреть онлайн, скачать торрент picoco.icu