Достать ножи: Стеклянная луковица

MVO

Добыча

Дубляж

Уэнсдэй

1 сезон

Тор

Дубляж

13 клиническая

1 сезон

Жестокая ночь

MVO

Одни из нас

1 сезон

Deluxe

pack

Рекомендуем

30

Пиратка

ВАЖНО

ВАЖНО

Ghostwire

Пиратка

jed

RePack

nioh2

RePack

RDR2

RePack

NEED FOR SPEED™ PAYBACK

RePack

скачать торрент

Кинопоиск HD

Острые козырьки 6 сезон

6 сезон

FAR CRY 6

RePack

скачать торрент

Лицензия

скачать торрент

MVO

1

1 сезон

скачать торрент

1 сезон

скачать торрент

Лицензия

  

Последний богатырь: Корень зла (Дмитрий Дьяченко) [2020 г., фэнтези, приключения, комедия, семейный, HDRip, Лицензия]

Последний богатырь: Корень зла через торрент pb.wtf

Раздают: 2 [ 0 KB/s ] Качают: 2 [ 0 KB/s ]
Размер: 719 MB | Добавлен: 3 мес. 1 д. назад | Торрент скачан:32 раза
Смотреть онлайн | Скачать | Поддержите нас   

28-10-2022 17:30 Последний богатырь: Корень зла Скачать торрент  

Последний богатырь: Корень зла
Год выпуска: 2020
Страна: Россия / Walt Disney Pictures, Yellow, Black & White
Жанр: фэнтези, приключения, комедия, семейный
Продолжительность: 02:01:40
Перевод: Не требуется Русский (Лицензия Blu-ray ITA)

Режиссер: Дмитрий Дьяченко

rating

В ролях: Виктор Хориняк, Мила Сивацкая, Екатерина Вилкова, Елена Яковлева, Константин Лавроненко, Сергей Бурунов, Елена Валюшкина, Кирилл Зайцев, Тимофей Трибунцев, Гарик Харламов

Описание: Во второй части зрители узнают об истоках древнего зла, с которым героям пришлось столкнуться в первом фильме, увидят новые уголки сказочного Белогорья, и станут свидетелями захватывающих схваток с участием былинных богатырей.

Качество: HDRip
Формат: AVI
Видео кодек: DivX
Аудио кодек: MP3
Видео: MPEG4, DivX 4, 640x272 (2.35:1), 24.000 fps, 689 kb/s (0.165 bit/pixel)
Аудио: MP3, 48.0 kHz, 2 ch, 128 kb/s, CBR

General
Complete name : G:\ФИЛЬМЫ\Последний богатырь. Корень зла.2020.HDRip.avi
Format : AVI
Format/Info : Audio Video Interleave
File size : 719 MiB
Duration : 2 h 1 min
Overall bit rate : 826 kb/s
Writing application : VirtualDubMod 1.5.10.3 | www.virtualdub-fr.org || (build 2550/release)
Writing library : VirtualDubMod build 2550/release

Video
ID : 0
Format : MPEG-4 Visual
Format profile : Advanced [email protected]
Format settings : BVOP2
Format settings, BVOP : 2
Format settings, QPel : No
Format settings, GMC : No warppoints
Format settings, Matrix : Default (MPEG)
Codec ID : DIVX
Codec ID/Info : Project Mayo
Codec ID/Hint : DivX 4
Duration : 2 h 1 min
Bit rate : 689 kb/s
Width : 640 pixels
Height : 272 pixels
Display aspect ratio : 2.35:1
Frame rate : 24.000 FPS
Color space : YUV
Chroma subsampling : 4:2:0
Bit depth : 8 bits
Scan type : Progressive
Compression mode : Lossy
Bits/(Pixel*Frame) : 0.165
Stream size : 599 MiB (83%)
Writing library : XviD 1.2.1 (UTC 2008-12-04)

Audio
ID : 1
Format : MPEG Audio
Format version : Version 1
Format profile : Layer 3
Format settings : Joint stereo / MS Stereo
Codec ID : 55
Codec ID/Hint : MP3
Duration : 2 h 1 min
Bit rate mode : Constant
Bit rate : 128 kb/s
Channel(s) : 2 channels
Sampling rate : 48.0 kHz
Frame rate : 41.667 FPS (1152 SPF)
Compression mode : Lossy
Stream size : 111 MiB (15%)
Alignment : Aligned on interleaves
Interleave, duration : 42 ms (1.00 video frame)
Interleave, preload duration : 504 ms
Writing library : LAME3.99r
Encoding settings : -m j -V 4 -q 2 -lowpass 17 -b 128




Скачать Последний богатырь: Корень зла через торрент https://i120.fastpic.org/big/2022/1028/c0/eea5584ec9b7c9bbf6e328e54a4833c0.jpg Скачать, смотреть онлайн Последний богатырь: Корень зла бесплантно в хорошем качестве Описание: Во второй части зрители узнают об истоках древнего зла, с которым героям пришлось столкнуться в первом фильме, увидят новые ... 7.8 10 4
Торрент: Зарегистрирован [2022-10-28 17:30] · скачан: 32 раз
Статус: √ проверено
Размер: 719 MB
Как cкачать? Как скачать Последний богатырь: Корень зла через торрент | UTorrent

% Раздел Тема Автор DL S | L
Наши фильмы (HD, WEB-DL 720p, 1080p) [ 4.21 GB ] Последний богатырь: Корень зла | iTunes | 1080p bober100 Скачать
8 | 0
Наши новые фильмы 2020 - 2023 [ 1.78 GB ] Последний богатырь: Корень зла | КиноПоиск HD | DLRip-AVC Lithuania Скачать
2 | 0
T Наши фильмы (HD, WEB-DL 720p, 1080p) [ 3.12 GB ] Последний богатырь: Корень зла | | 720p killermax2013 Скачать
1 | 0
Наши новые фильмы 2020 - 2023 [ 2.18 GB ] Последний богатырь: Корень зла | Лицензия Blu-ray ITA | BDRip bober100 Скачать
2 | 0
Наши новые фильмы 2020 - 2023 [ 2.68 GB ] Последний богатырь: Корень зла | iTunes | DLRip-AVC bober100 Скачать
2 | 0
Наши новые фильмы 2020 - 2023 [ 1.46 GB ] Последний богатырь: Корень зла | Лицензия Blu-ray ITA | BDRip bober100 Скачать
1 | 0

28-11-2019 20:33  


Отключить вcю реклaмy на сайте, в т.ч. и в плеере онлайн просмотра!

    Дорогой пользователь! Огромная просьба, поблагодарите релизера, оцените раздачу и оставьте свои комментарий, если Вы скачали Последний богатырь: Корень зла через торрент бесплатно!!
    Комментировать посты могут только пользователи прошедшие не сложную регистрацию
    Показать сообщения:    


    Последний богатырь: Корень зла через торрент
    Скачать бесплатно Последний богатырь: Корень зла
    Последний богатырь: Корень зла скачать торрент
    Последний богатырь: Корень зла смотреть онлайн
    Cкачать фильм Последний богатырь: Корень зла бесплатно
    Последний богатырь: Корень зла скачать торрент в хорошем качестве
    Последний богатырь: Корень зла смотреть онлайн бесплатно в хорошем качестве
    Вы не можете начинать темы
    Вы не можете отвечать на сообщения
    Вы не можете редактировать свои сообщения
    Вы не можете удалять свои сообщения
    Вы не можете голосовать в опросах
    Вы не можете прикреплять файлы к сообщениям
    Вы можете скачивать файлы
    Последний богатырь: Корень зла [2020 г., фэнтези, приключения, комедия, семейный, HDRip, Лицензия] смотреть онлайн, скачать торрент picoco.icu