Достать ножи: Стеклянная луковица

MVO

Добыча

Дубляж

Уэнсдэй

1 сезон

Тор

Дубляж

13 клиническая

1 сезон

Жестокая ночь

MVO

Одни из нас

1 сезон

Deluxe

pack

Рекомендуем

30

Пиратка

ВАЖНО

ВАЖНО

Ghostwire

Пиратка

jed

RePack

nioh2

RePack

RDR2

RePack

NEED FOR SPEED™ PAYBACK

RePack

скачать торрент

Кинопоиск HD

Острые козырьки 6 сезон

6 сезон

FAR CRY 6

RePack

скачать торрент

Лицензия

скачать торрент

MVO

1

1 сезон

скачать торрент

1 сезон

скачать торрент

Лицензия

  

Бешеные псы / Reservoir Dogs (Квентин Тарантино) [1992, триллер, драма, криминал, WEB-DLRip - HEVC 1080p 10 bit 60 FPS, MVO, AVO]

Бешеные псы через торрент pb.wtf

Размер: 3.98 GB | Добавлен: 3 мес. 8 д. назад | Торрент скачан:72 раза
Смотреть онлайн | Скачать | Поддержите нас   

29-10-2022 11:00 Бешеные псы Скачать торрент  

Reservoir Dogs
«Let's get the job done»
Информация о фильме:
Название: Бешеные псы
Оригинальное название: Reservoir Dogs
Год выхода: 1991
Жанр: триллер, драма, криминал
Режиссер: Квентин Тарантино
В ролях: Харви Кейтель, Тим Рот, Майкл Мэдсен, Крис Пенн, Стив Бушеми, Лоуренс Тирни, Эдвард Банкер, Квентин Тарантино, Рэнди Брукс, Кирк Балц
Описание: Это должно было стать идеальным преступлением. Задумав ограбить ювелирный магазин, криминальный босс Джо Кэбот собрал вместе шестерых опытных и совершенно незнакомых друг с другом преступников. Но с самого начала все пошло не так, и обычный грабеж превратился в кровавую бойню.


Страна: США
Студия: Live America Inc.
Продолжительность: 01:39:32
Перевод: Профессиональный (двухголосый закадровый) | Blu-ray RUS
Перевод: Авторский (одноголосый закадровый) | Д. Пучков
Субтитры: русские |
Навигация по главам: нет
Информация о файле:
Качество: WEB-DLRip - HEVC 1080p Rip by DD2D3
Формат: MKV
Видео: V_MPEGH/ISO/HEVC; 1920x1080 (16:9); 3656 Kbps; 60 fps; 0,029 bpp
Аудио: русский; DTS; 1509 Kbps; CBR; 6 ch; 24 bit ||
Аудио: русский; AC3; 448 Kbps; CBR; 6 ch ||
Доп. информация: Open Matte

Общее
Уникальный идентификатор : 194117183412824349836929349310419291727 (0x92099C106A78780C952176BE9A7BCE4F)
Полное имя : E:\Reservoir Dogs (1991) [Open Matte] WEB-DLRip - HEVC 1080p 10 bit 60 FPS.mkv
Формат : Matroska
Версия формата : Version 2
Размер файла : 3,98 Гбайт
Продолжительность : 1 ч. 39 м.
Общий поток : 5 728 Кбит/сек
Название фильма : Rip by from DD2D3
Дата кодирования : UTC 2022-10-29 10:01:09
Программа кодирования : mkvmerge v7.8.0 ('River Man') 32bit built on Apr 3 2015 12:11:22
Библиотека кодирования : libebml v1.3.1 + libmatroska v1.4.2
Attachments : poster

Видео
Идентификатор : 1
Формат : HEVC
Формат/Информация : High Efficiency Video Coding
Профиль формата : Main [email protected]@Main
Идентификатор кодека : V_MPEGH/ISO/HEVC
Продолжительность : 1 ч. 39 м.
Битрейт : 3 656 Кбит/сек
Ширина : 1 920 пикселей
Высота : 1 080 пикселей
Соотношение сторон : 16:9
Режим частоты кадров : Постоянный
Частота кадров : 60,000 кадров/сек
Цветовое пространство : YUV
Субдискретизация насыщенности : 4:2:0
Битовая глубина : 10 бит
Бит/(Пиксели*Кадры) : 0.029
Размер потока : 2,54 Гбайт (64%)
Библиотека кодирования : x265 3.5+20-17839cc0d:[Windows][GCC 11.2.0][64 bit] 10bit
Настройки программы : cpuid=1111039 / frame-threads=2 / numa-pools=4 / wpp / no-pmode / no-pme / no-psnr / no-ssim / log-level=2 / input-csp=1 / input-res=1920x1080 / interlace=0 / total-frames=358334 / level-idc=41 / high-tier=1 / uhd-bd=0 / ref=3 / no-allow-non-conformance / no-repeat-headers / annexb / no-aud / no-eob / no-eos / no-hrd / info / hash=0 / no-temporal-layers / open-gop / min-keyint=5 / keyint=240 / gop-lookahead=0 / bframes=4 / b-adapt=2 / b-pyramid / bframe-bias=0 / rc-lookahead=20 / lookahead-slices=6 / scenecut=40 / no-hist-scenecut / radl=0 / no-splice / no-intra-refresh / ctu=64 / min-cu-size=8 / no-rect / no-amp / max-tu-size=8 / tu-inter-depth=1 / tu-intra-depth=1 / limit-tu=0 / rdoq-level=0 / dynamic-rd=0.00 / no-ssim-rd / signhide / no-tskip / nr-intra=0 / nr-inter=0 / no-constrained-intra / strong-intra-smoothing / max-merge=3 / limit-refs=1 / no-limit-modes / me=1 / subme=5 / merange=57 / temporal-mvp / no-frame-dup / no-hme / weightp / no-weightb / no-analyze-src-pics / deblock=0:0 / sao / no-sao-non-deblock / rd=3 / selective-sao=4 / early-skip / rskip / no-fast-intra / no-tskip-fast / no-cu-lossless / b-intra / no-splitrd-skip / rdpenalty=0 / psy-rd=2.00 / psy-rdoq=0.00 / no-rd-refine / no-lossless / cbqpoffs=-2 / crqpoffs=-2 / rc=abr / bitrate=3750 / qcomp=0.70 / qpstep=4 / stats-write=0 / stats-read=0 / ipratio=1.38 / pbratio=1.28 / aq-mode=2 / aq-strength=1.00 / cutree / zone-count=0 / no-strict-cbr / qg-size=32 / no-rc-grain / qpmax=69 / qpmin=0 / no-const-vbv / sar=1 / overscan=0 / videoformat=5 / range=0 / colorprim=1 / transfer=1 / colormatrix=1 / chromaloc=0 / display-window=0 / cll=0,0 / min-luma=0 / max-luma=1023 / log2-max-poc-lsb=8 / vui-timing-info / vui-hrd-info / slices=1 / no-opt-qp-pps / no-opt-ref-list-length-pps / no-multi-pass-opt-rps / scenecut-bias=0.05 / hist-threshold=0.03 / no-opt-cu-delta-qp / no-aq-motion / no-hdr10 / no-hdr10-opt / no-dhdr10-opt / no-idr-recovery-sei / analysis-reuse-level=0 / analysis-save-reuse-level=0 / analysis-load-reuse-level=0 / scale-factor=0 / refine-intra=0 / refine-inter=0 / refine-mv=1 / refine-ctu-distortion=0 / no-limit-sao / ctu-info=0 / no-lowpass-dct / refine-analysis-type=0 / copy-pic=1 / max-ausize-factor=1.0 / no-dynamic-refine / no-single-sei / no-hevc-aq / no-svt / no-field / qp-adaptation-range=1.00 / scenecut-aware-qp=0conformance-window-offsets / right=0 / bottom=0 / decoder-max-rate=0 / no-vbv-live-multi-pass
Default : Да
Forced : Нет
Цветовой диапазон : Limited
Основные цвета : BT.709
Характеристики трансфера : BT.709
Коэффициенты матрицы : BT.709

Аудио #1
Идентификатор : 2
Формат : DTS
Формат/Информация : Digital Theater Systems
Идентификатор кодека : A_DTS
Продолжительность : 1 ч. 39 м.
Вид битрейта : Постоянный
Битрейт : 1 510 Кбит/сек
Каналы : 6 каналов
Channel layout : C L R Ls Rs LFE
Частота : 48,0 КГц
Частота кадров : 93,750 кадра/сек (512 SPF)
Битовая глубина : 24 бит
Метод сжатия : С потерями
Размер потока : 1,05 Гбайт (26%)
Заголовок : Blu-ray RUS
Язык : Russian
Default : Да
Forced : Нет
Statistics Tags Issue : mkvmerge v14.0.0 ('Flow') 64bit 2017-08-21 19:30:05 / mkvmerge v7.8.0 ('River Man') 32bit built on Apr 3 2015 12:11:22 2022-10-29 10:01:09
FromStats_BitRate : 1509002
FromStats_Duration : 01:39:28.992000000
FromStats_FrameCount : 559593
FromStats_StreamSize : 1125903092

Аудио #2
Идентификатор : 3
Формат : AC-3
Формат/Информация : Audio Coding 3
Коммерческое название : Dolby Digital
Идентификатор кодека : A_AC3
Продолжительность : 1 ч. 39 м.
Вид битрейта : Постоянный
Битрейт : 448 Кбит/сек
Каналы : 6 каналов
Channel layout : L R C LFE Ls Rs
Частота : 48,0 КГц
Частота кадров : 31,250 кадров/сек (1536 SPF)
Метод сжатия : С потерями
Размер потока : 319 Мбайт (8%)
Заголовок : Д. Пучков 2
Язык : Russian
Service kind : Complete Main
Default : Нет
Forced : Нет
Statistics Tags Issue : mkvmerge v14.0.0 ('Flow') 64bit 2017-08-21 19:30:05 / mkvmerge v7.8.0 ('River Man') 32bit built on Apr 3 2015 12:11:22 2022-10-29 10:01:09
FromStats_BitRate : 448000
FromStats_Duration : 01:39:20.032000000
FromStats_FrameCount : 186251
FromStats_StreamSize : 333761792

Текст
Идентификатор : 4
Формат : UTF-8
Идентификатор кодека : S_TEXT/UTF8
Идентификатор кодека/Информация : UTF-8 Plain Text
Язык : Russian
Default : Да
Forced : Нет
Statistics Tags Issue : mkvmerge v14.0.0 ('Flow') 64bit 2017-08-21 19:30:05 / mkvmerge v7.8.0 ('River Man') 32bit built on Apr 3 2015 12:11:22 2022-10-29 10:01:09
FromStats_BitRate : 110
FromStats_Duration : 01:35:08.160000000
FromStats_FrameCount : 1149
FromStats_StreamSize : 78831




Скачать Бешеные псы через торрент https://st-kp-yandex-net.translate.goog/images/film_iphone/iphone360_394.jpg Скачать, смотреть онлайн Бешеные псы бесплантно в хорошем качестве Описание: Это должно было стать идеальным преступлением. Задумав ограбить ювелирный магазин, криминальный босс Джо Кэбот собрал вместе ... 10 10 7
Торрент: Зарегистрирован [2022-10-29 11:00] · скачан: 72 раз
Статус: √ проверено
Размер: 3.98 GB
Как cкачать? Как скачать Бешеные псы через торрент | UTorrent

% Раздел Тема Автор DL S | L
Фильмы с авторской озвучкой [ 1.59 GB ] Бешеные псы / Reservoir Dogs | AVO | BDRip AVC Леонид Ильич Скачать
1 | 0
Фильмы (Blu-ray, BD-Remux, HDDVD) [ 24.42 GB ] Бешеные псы / Reservoir Dogs | MVO+DVO+3xAVO | BD Remux 1080p bober100 Скачать
1 | 0
Фильмы [HD 720p, 1080p] (Хороший звук DUB, MVO) [ 10.07 GB ] Бешеные псы / Reservoir Dogs | | 1080p RodDog Скачать
1 | 0
# Фильмы [HD 720p, 1080p] (Хороший звук DUB, MVO) [ 4.31 GB ] Бешеные псы / Reservoir Dogs | MVO+2xAVO | 720p bober100 Скачать
1 | 0
Фильмы до 2000 г. [ 1.37 GB ] Бешеные псы / Reservoir Dogs | | HDRip Zormeg Скачать
1 | 1
Фильмы до 2000 г. [ 1.46 GB ] Бешеные псы / Reservoir Dogs | | BDRip Lil Badun Скачать
1 | 0
Фильмы до 2000 г. [ 2.18 GB ] Бешеные псы / Reservoir Dogs | | BDRip-AVC RAMBO Скачать
1 | 0

28-11-2019 20:33  


Отключить вcю реклaмy на сайте, в т.ч. и в плеере онлайн просмотра!

    Дорогой пользователь! Огромная просьба, поблагодарите релизера, оцените раздачу и оставьте свои комментарий, если Вы скачали Бешеные псы через торрент бесплатно!!
    Комментировать посты могут только пользователи прошедшие не сложную регистрацию
    Показать сообщения:    


    Бешеные псы через торрент
    Скачать бесплатно Бешеные псы
    Бешеные псы скачать торрент
    Бешеные псы смотреть онлайн
    Cкачать фильм Бешеные псы бесплатно
    Бешеные псы скачать торрент в хорошем качестве
    Бешеные псы смотреть онлайн бесплатно в хорошем качестве
    Вы не можете начинать темы
    Вы не можете отвечать на сообщения
    Вы не можете редактировать свои сообщения
    Вы не можете удалять свои сообщения
    Вы не можете голосовать в опросах
    Вы не можете прикреплять файлы к сообщениям
    Вы можете скачивать файлы
    Бешеные псы / Reservoir Dogs [1992, триллер, драма, криминал, WEB-DLRip - HEVC 1080p 10 bit 60 FPS, MVO, AVO] смотреть онлайн, скачать торрент picoco.icu