Архив 81

1 сезон

Добыча

Дубляж

Тед Лассо

3 сезон

Тор

1 сезон

13 клиническая

3 сезон

Жестокая ночь

Дубляж

Одни из нас

1s 9e

Premium

Premium

Deluxe

Deluxe

pack

Рекомендуем

30

Repack

ВАЖНО

ВАЖНО

Ghostwire

Пиратка

jed

RePack

nioh2

RePack

RDR2

RePack

NEED FOR SPEED™ PAYBACK

RePack

скачать торрент

Кинопоиск HD

Острые козырьки 6 сезон

6 сезон

FAR CRY 6

RePack

скачать торрент

Лицензия

скачать торрент

MVO

1

1 сезон

скачать торрент

1 сезон

скачать торрент

Лицензия

  

Caribbean Vacation / Карибские каникулы (Alessandro del Mar) [2003 г., All sex, DVD5]

Caribbean Vacation через торрент pb.wtf

Качают: 1 [ 0 KB/s ]
Размер: 4.36 GB | Добавлен: 4 мес. 25 д. назад | Торрент скачан:65 раз
| Скачать | Поддержите нас   

30-10-2022 11:34 Caribbean Vacation Скачать торрент  

Caribbean Vacation / Карибские каникулы
Год выпуска: 2003
Страна: Sweden
Жанр: All sex
Продолжительность: 02:20:00

Режиссер: Alessandro del Mar

В ролях: Francesco Malcon, Sandra Russo, Giancarlo Bini, Jessica May, Sebastian Barrio, Sandra Key

Описание: Когда вы собираетесь в отпуск не надо задерживаться на работе. Посмотрите к чему это приводит и что произошло с нашим героем после тяжелых трудовых будней. В мыслях уже совсем не работа, а море, солнце, прекрасная природа, приключения и много необузданного секса........

Качество: DVD5
Формат: DVD Video
Видео кодек: MPEG2
Аудио кодек: AC3
Видео: 720x576, MPEG 2, 4650 Кбит/сек
Аудио: Русский, AC3, 2 ch, 192 Кбит/сек
Аудио#2: Английский, AC3, 2 ch, 192 Кбит/сек
Видео
Идентификатор : 224 (0xE0)
Формат : MPEG Video
Версия формата : Version 2
Профиль формата : [email protected]
Настройки формата : CustomMatrix / BVOP
Параметр BVOP формата : Да
Параметр матрицы формата : Выборочная
Параметр GOP формата : M=3, N=12
Структура изображения : Frame
Продолжительность : 25 м. 35 с.
Вид битрейта : Переменный
Битрейт : 4650 Кбит/сек
Ширина : 720 пикселей
Высота : 576 пикселей
Соотношение сторон : 4:3
Частота кадров : 25,000 кадров/сек
Стандарт вещания : PAL
Цветовое пространство : YUV
Субдискретизация насыщенности : 4:2:0
Битовая глубина : 8 бит
Тип развёртки : Чересстрочная
Порядок развёртки : Верхнее поле первое
Метод сжатия : С потерями
Бит/(Пиксели*Кадры) : 0.449
Временной код первого кадра : 10:00:00:00
Оригинал временного кода : Group of pictures header
GOP, открыто/закрыто : Закрыто
Размер потока : 851 Мбайт (83%)

Аудио #1
Идентификатор : 189 (0xBD)-128 (0x80)
Формат : AC-3
Формат/Информация : Audio Coding 3
Коммерческое название : Dolby Digital
Режим смешивания : DVD-Video
Продолжительность : 25 м. 35 с.
Вид битрейта : Постоянный
Битрейт : 192 Кбит/сек
Каналы : 2 канала
ChannelLayout : L R
Частота : 48,0 КГц
Частота кадров : 31,250 кадров/сек (1536 SPF)
Метод сжатия : С потерями
Размер потока : 35,1 Мбайт (3%)
ServiceKind/String : Complete Main

Аудио #2
Идентификатор : 189 (0xBD)-130 (0x82)
Формат : AC-3
Формат/Информация : Audio Coding 3
Коммерческое название : Dolby Digital
Режим смешивания : DVD-Video
Продолжительность : 25 м. 35 с.
Вид битрейта : Постоянный
Битрейт : 192 Кбит/сек
Каналы : 2 канала
ChannelLayout : L R
Частота : 48,0 КГц
Частота кадров : 31,250 кадров/сек (1536 SPF)
Метод сжатия : С потерями
Размер потока : 35,1 Мбайт (3%)
ServiceKind/String : Complete Main

Аудио #3
Идентификатор : 189 (0xBD)-132 (0x84)
Формат : AC-3
Формат/Информация : Audio Coding 3
Коммерческое название : Dolby Digital
Режим смешивания : DVD-Video
Продолжительность : 25 м. 35 с.
Вид битрейта : Постоянный
Битрейт : 448 Кбит/сек
Каналы : 2 канала
ChannelLayout : L R
Частота : 48,0 КГц
Частота кадров : 31,250 кадров/сек (1536 SPF)
Метод сжатия : С потерями
Размер потока : 82,0 Мбайт (8%)
ServiceKind/String : Complete Main




pack Скачать Caribbean Vacation через торрент https://i120.fastpic.org/big/2022/1030/60/bcd38e50619b674093cafed39bf4e960.jpg Скачать, смотреть онлайн Caribbean Vacation бесплантно в хорошем качестве Описание: Когда вы собираетесь в отпуск не надо задерживаться на работе. Посмотрите к чему это приводит и что произошло с нашим героем ... 10 10 3
Info! Золотая раздача, скачанное не засчитывается.
Торрент: Зарегистрирован [2022-10-30 11:34] · скачан: 65 раз
Статус: √ проверено
Размер: 4.36 GB
Как cкачать? Как скачать Caribbean Vacation через торрент | UTorrent

% Раздел Тема Автор DL S | L
Порно фильмы с русским переводом [ 1.47 GB ] Карибские Каникулы / Private Tropical 4: Caribbean Vacation | | DVDRip, VO [email protected] Скачать
1 | 0

28-11-2019 20:33  


Отключить вcю реклaмy на сайте, в т.ч. и в плеере онлайн просмотра!

    Дорогой пользователь! Огромная просьба, поблагодарите релизера, оцените раздачу и оставьте свои комментарий, если Вы скачали Caribbean Vacation через торрент бесплатно!!
    Комментировать посты могут только пользователи прошедшие не сложную регистрацию
    Показать сообщения:    


    Caribbean Vacation через торрент
    Скачать бесплатно Caribbean Vacation
    Caribbean Vacation скачать торрент
    Caribbean Vacation смотреть онлайн
    Cкачать фильм Caribbean Vacation бесплатно
    Caribbean Vacation скачать торрент в хорошем качестве
    Caribbean Vacation смотреть онлайн бесплатно в хорошем качестве
    Вы не можете начинать темы
    Вы не можете отвечать на сообщения
    Вы не можете редактировать свои сообщения
    Вы не можете удалять свои сообщения
    Вы не можете голосовать в опросах
    Вы не можете прикреплять файлы к сообщениям
    Вы можете скачивать файлы
    Caribbean Vacation / Карибские каникулы [2003 г., All sex, DVD5] смотреть онлайн, скачать торрент picoco.icu