Доктор Стрэндж

Лицензия

Добыча

Дубляж

Уэнсдэй

1 сезон

Тор

Дубляж

В эфире

Дубляж

Там, где раки поют

MVO

Властелин колец

1 сезон

Deluxe

pack

Рекомендуем

30

Пиратка

ВАЖНО

ВАЖНО

Ghostwire

Пиратка

jed

RePack

nioh2

RePack

RDR2

RePack

NEED FOR SPEED™ PAYBACK

RePack

скачать торрент

Кинопоиск HD

Острые козырьки 6 сезон

6 сезон

FAR CRY 6

RePack

скачать торрент

Лицензия

скачать торрент

MVO

1

1 сезон

скачать торрент

1 сезон

скачать торрент

Лицензия

  

Неувольняемый / Irréductible (Жером Коммандёр) [2022, Комедия, BD Remux 1080p] Дубляж [Кипарис]

Неувольняемый через торрент pb.wtf

Раздают: 1 [ 14 KB/s ]
Размер: 23.51 GB | Добавлен: 1 мес. 9 д. назад | Торрент скачан:35 раз
Смотреть онлайн | Скачать   

31-10-2022 04:12 Неувольняемый Скачать торрент  

Неувольняемый
Irréductible

Год выпуска: 2022
Страна: Франция
Студия: Canal+ [fr], Ciné, M6, M6 Films, Medset Film, SND, W9
Жанр: Комедия
Продолжительность: 01:24:29
Перевод: Дублированный | Кипарис
Субтитры: Русские (Forced, full)

Режиссер: Жером Коммандёр

rating

В ролях: Жером Коммандер, Кристиан Клавье, Жерар Дармон, Валери Лемерсье, Николь Кальфан, Летиция Дош, Паскаль Арбийо, Анн-Софи Лапикс, Карина Бойте, Малик Бенталха, Жерар Депардье

Описание: Венсан всеми силами старается сохранить работу, пока его начальница Изабель судорожно пытается найти причины для его увольнения. Испытывая терпение Венсана, она отправляет его в самые дальние точки мира — от африканской глуши и амазонских джунглей до Северного полюса. Кто победит в этой схватке не на жизнь, а на повышенную пенсию?

Качество: BD Remux 1080p
Формат: MKV

Видео: MPEG-4 AVC, 1920x1080, 36.6 Mbit/s, 24.000 fps
Аудио #01: 48 kHz, AC3, 5.1, 448 Kbps | Дублированный | Кипарис | RUS |
Аудио #02: 48 kHz, E-AC3, 5.1, 448 Kbps | Дублированный | Кипарис | RUS |
Аудио #03: 48 kHz, DTS-HD MA, 5.1, 2328 Kbps | Оригинал | FRE |
скриншот  скриншот  скриншот  скриншот  скриншот  скриншот  

General
Unique ID : 331593626550294862262125299698095752449 (0xF9769C067EE8CE2430DA71F6208E0501)
Complete name : D:VideosIrreductible.2022.BDREMUX.1080p.seleZen.mkv
Format : Matroska
Format version : Version 4
File size : 23.5 GiB
Duration : 1 h 24 min
Overall bit rate mode : Variable
Overall bit rate : 39.8 Mb/s
Movie name : Irreductible 2022 from seleZen
Encoded date : UTC 2022-10-30 23:33:04
Writing application : mkvmerge v59.0.0 ('Shining Star') 64-bit
Writing library : libebml v1.4.2 + libmatroska v1.6.4

Video
ID : 1
Format : AVC
Format/Info : Advanced Video Codec
Format profile : [email protected]
Format settings : CABAC / 2 Ref Frames
Format settings, CABAC : Yes
Format settings, Reference : 2 frames
Codec ID : V_MPEG4/ISO/AVC
Duration : 1 h 24 min
Bit rate mode : Variable
Bit rate : 36.6 Mb/s
Width : 1 920 pixels
Height : 1 080 pixels
Display aspect ratio : 16:9
Frame rate mode : Constant
Frame rate : 24.000 FPS
Color space : YUV
Chroma subsampling : 4:2:0
Bit depth : 8 bits
Scan type : Progressive
Bits/(Pixel*Frame) : 0.736
Stream size : 21.6 GiB (92%)
Language : English
Default : Yes
Forced : No

Audio #1
ID : 2
Format : AC-3
Format/Info : Audio Coding 3
Commercial name : Dolby Digital
Codec ID : A_AC3
Duration : 1 h 24 min
Bit rate mode : Constant
Bit rate : 448 kb/s
Channel(s) : 6 channels
Channel layout : L R C LFE Ls Rs
Sampling rate : 48.0 kHz
Frame rate : 31.250 FPS (1536 SPF)
Compression mode : Lossy
Stream size : 271 MiB (1%)
Title : Дубляж
Language : Russian
Service kind : Complete Main
Default : Yes
Forced : Yes

Audio #2
ID : 3
Format : E-AC-3
Format/Info : Enhanced AC-3
Commercial name : Dolby Digital Plus
Codec ID : A_EAC3
Duration : 1 h 24 min
Bit rate mode : Constant
Bit rate : 448 kb/s
Channel(s) : 6 channels
Channel layout : L R C LFE Ls Rs
Sampling rate : 48.0 kHz
Frame rate : 31.250 FPS (1536 SPF)
Compression mode : Lossy
Stream size : 271 MiB (1%)
Title : Дубляж
Language : Russian
Service kind : Complete Main
Default : No
Forced : No

Audio #3
ID : 4
Format : DTS XLL
Format/Info : Digital Theater Systems
Commercial name : DTS-HD Master Audio
Codec ID : A_DTS
Duration : 1 h 24 min
Bit rate mode : Variable
Bit rate : 2 328 kb/s
Channel(s) : 6 channels
Channel layout : C L R Ls Rs LFE
Sampling rate : 48.0 kHz
Frame rate : 93.750 FPS (512 SPF)
Bit depth : 16 bits
Compression mode : Lossless
Stream size : 1.37 GiB (6%)
Title : Original
Language : French
Default : No
Forced : No

Text #1
ID : 5
Format : UTF-8
Codec ID : S_TEXT/UTF8
Codec ID/Info : UTF-8 Plain Text
Duration : 1 h 18 min
Bit rate : 1 b/s
Frame rate : 0.003 FPS
Count of elements : 14
Stream size : 670 Bytes (0%)
Title : Forced
Language : Russian
Default : Yes
Forced : Yes

Text #2
ID : 6
Format : UTF-8
Codec ID : S_TEXT/UTF8
Codec ID/Info : UTF-8 Plain Text
Duration : 1 h 23 min
Bit rate : 117 b/s
Frame rate : 0.305 FPS
Count of elements : 1534
Stream size : 72.3 KiB (0%)
Title : Full
Language : Russian
Default : No
Forced : No

Menu
00:00:00.000 : Глава 01
00:07:16.292 : Глава 02
00:14:02.583 : Глава 03
00:20:49.417 : Глава 04
00:28:06.417 : Глава 05
00:34:59.750 : Глава 06
00:42:13.125 : Глава 07
00:49:09.167 : Глава 08
00:55:16.458 : Глава 09
01:02:29.667 : Глава 10
01:09:57.792 : Глава 11
01:16:09.708 : Глава 12




Скачать Неувольняемый через торрент https://i120.fastpic.org/big/2022/1031/72/061f1051afca4d0ae23bc52f26e3de72.jpg Скачать, смотреть онлайн Неувольняемый бесплантно в хорошем качестве Описание: Венсан всеми силами старается сохранить работу, пока его начальница Изабель судорожно пытается найти причины для его увольнения. ... 10 10 4
Торрент: Зарегистрирован [2022-10-31 04:12] · скачан: 35 раз
Статус: √ проверено
Размер: 23.51 GB
Как cкачать? Как скачать Неувольняемый через торрент | UTorrent

% Раздел Тема Автор DL S | L
Фильмы [HD 720p, 1080p] (Хороший звук DUB, MVO) [ 8.87 GB ] Неувольняемый / Irréductible | Кипарис | 1080p bober100 Скачать
6 | 0
Фильмы 2022 [DVDrip, WEB-DLRip, HDrip] (DUB, MVO) [ 1.47 GB ] Неувольняемый / Irréductible | Кипарис | BDRip-AVC bober100 Скачать
8 | 0
Фильмы 2022 [DVDrip, WEB-DLRip, HDrip] (DUB, MVO) [ 1.46 GB ] Неувольняемый / Irréductible | Кипарис | BDRip bober100 Скачать
4 | 0
Фильмы 2022 [DVDrip, WEB-DLRip, HDrip] (DUB, MVO) [ 744 MB ] Неувольняемый / Irréductible | Кипарис | BDRip bober100 Скачать
1 | 0
Фильмы [HD 720p, 1080p] (Хороший звук DUB, MVO) [ 4.74 GB ] Неувольняемый / Irréductible | Кипарис | 720p bober100 Скачать
2 | 0

28-11-2019 20:33  


Отключить вcю реклaмy на сайте, в т.ч. и в плеере онлайн просмотра!

    Дорогой пользователь! Огромная просьба, поблагодарите релизера, оцените раздачу и оставьте свои комментарий, если Вы скачали Неувольняемый через торрент бесплатно!!
    Комментировать посты могут только пользователи прошедшие не сложную регистрацию
    Показать сообщения:    


    Неувольняемый через торрент
    Скачать бесплатно Неувольняемый
    Неувольняемый скачать торрент
    Неувольняемый смотреть онлайн
    Cкачать фильм Неувольняемый бесплатно
    Неувольняемый скачать торрент в хорошем качестве
    Неувольняемый смотреть онлайн бесплатно в хорошем качестве
    Вы не можете начинать темы
    Вы не можете отвечать на сообщения
    Вы не можете редактировать свои сообщения
    Вы не можете удалять свои сообщения
    Вы не можете голосовать в опросах
    Вы не можете прикреплять файлы к сообщениям
    Вы можете скачивать файлы
    Неувольняемый / Irréductible [2022, Комедия, BD Remux 1080p] Дубляж [Кипарис] смотреть онлайн, скачать торрент picoco.icu