Ссылка на приватное зеркало нашего сайта всего за 1$. Внимание количество ограничено!!!

2 сезон

iTunes

1 сезон

1

2 сезон

2 сезон

iTunes

1 сезон

RePack

30

Ultimate

ВАЖНО

ИГРА 18+

pack

RePack

MK11
pack

Забери бонус

RePack

jed

!!Акция!!

Alien_Rage

RePack

fifa19

RePack

Assassins Creed: Odyssey

RePack

NEED FOR SPEED™ PAYBACK

4 сезон

9 сезон

Бесстыжие 9 сезон

Все сериалы

все сериалы на PB.wtf

RePack

FAR CRY 5
  

Быть человеком / Being Human US/ Сезон: 1 (13 серий из(13) (Adam Kane) [2011 г., Драма, мистика, ужасы, фэнтези, WEB-DLRip] pb.wtf

Быть человеком через торрент pb.wtf

Размер: 5.72 GB | Добавлен: 9 лет 7 мес. назад | Торрент скачан:21 раз
Скачать  

25-02-2011 21:02 Быть человеком Скачать торрент  

Быть человеком / Being Human US
сезон 1 (13 серий из(13)

Год выпуска: 2011
Страна: США
Жанр: Драма, мистика, ужасы, фэнтези
Продолжительность: ~ 00:45:00
Перевод: Творческий многоголосый закадровый(BaibaKo), c 8 серии Любительский (трехголосый, закадровый) (OneFilm) и (DreamRecords.TV для OneFilm)

Режиссер: Adam Kane
Продюссер: Адам Кэйн, Элисса Льюис, Cari Davine
Сценарий: Тоби Уитхауз, Джереми Карвер, Анна Фрике

Премьера в мире: 17 января 2011

IMDB:7.30 (1 208)
Кинопоиск:6.500 108

В ролях: Сэм Уитвер Миган Рат Сэм Хантингтон Джанпаоло Венута Марк Пеллегрино Анджела Галуппо Винсент Леклерк Сара Аллен Кристен Хагер Элисон Лодер



Описание: Сериал рассказывает о троих соседях: вампире, оборотне и привидении. Вампир не слишком успешно пытается обходиться без людей, оборотень мучается из-за своих превращений в полнолуние, а привидение немного странное взбалмошное создание.

Качество: WEB-DLRip Серии с 1-7
Формат: AVI
Видео кодек: XviD
Аудио кодек: MP3
Видео: 720x400 (1.80:1), 23.976 fps, XviD MPEG-4 ~1278 kbps avg, 0.19 bit/pixel
Аудио: Аудио Rus: 48 kHz, MPEG Layer 3, 2 ch, ~192.00 kbps avg Аудио Eng: 48 kHz, MPEG Layer 3, 2 ch, ~192.00 kbps avg
Релиз от:
Перевод: Oleg_Vershinin, Koonz, happiness, smthless, zhazminfleur, xTroy, UltroGame, burton, gbletel
Адаптация: baibako
Озвучка: ChrisTref, Лира Грим, Алексей Кузнецов и Юрий Линкевич

Качество: HDTVRip Серия 8-13
Формат: AVI
Видео кодек: XviD
Аудио кодек: MP3
Видео: 624x352 (1.77:1), 23.976 fps, 957 Kbps, 0.182 bit/pixel
Аудио: 48 kHz, 2 ch, ~128 Kbps avg
Озвучила релиз-группа:

Перевод: Notabenoid (8 серия)CHAOS (8-13 серии)
Озвучка: Katerina (с 8 серии), Abarat, SPN
1. По соседству ч.1 (There Goes the Neighborhood: Part I)
2. По соседству ч.2 (There Goes the Neighborhood: Part II)
3. Некоторые наблюдают (Some Thing to Watch Over Me)
4. Разве это не прекрасно? (Wouldn't It Be Nice)
5. Конец мира в том виде, в каком мы его знаем (The End of the World As We Knew It)
6. Достаточно двоих, чтобы всё пошло наперекосяк (It Takes Two to Make a Thing Go Wrong)
7. Я вижу тебя насквозь и поэтому ненавижу (I See Your True Colors... And That's Why I Hate You)
E:\ЗАГРУЗКА\Being.Human.s01.WEB-DLRip.BaibaKo.tv\Being.Human.s01e02.There.Goes.the.Neighborhood,Part2.WEB-DLRip.Rus-Eng.BaibaKo.tv.avi
General
Complete name : E:\ЗАГРУЗКА\Being.Human.s01.WEB-DLRip.BaibaKo.tv\Being.Human.s01e02.There.Goes.the.Neighborhood,Part2.WEB-DLRip.Rus-Eng.BaibaKo.tv.avi
Format : AVI
Format/Info : Audio Video Interleave
File size : 533 MiB
Duration : 44mn 23s
Overall bit rate : 1 677 Kbps
Writing application : VirtualDubMod 1.5.10.2 (build 2540/release)
Writing library : VirtualDubMod build 2540/release
Video #0
ID : 0
Format : MPEG-4 Visual
Format profile : Advanced Simple@L5
Format settings, BVOP : Yes
Format settings, QPel : No
Format settings, GMC : No warppoints
Format settings, Matrix : Default (H.263)
Muxing mode : Packed bitstream
Codec ID : XVID
Codec ID/Hint : XviD
Duration : 44mn 23s
Bit rate : 1 279 Kbps
Width : 720 pixels
Height : 400 pixels
Display aspect ratio : 16:9
Frame rate : 23.976 fps
Resolution : 8 bits
Colorimetry : 4:2:0
Scan type : Progressive
Bits/(Pixel*Frame) : 0.185
Stream size : 406 MiB (76%)
Writing library : XviD 1.2.1 (UTC 2008-12-04)
Audio #1
ID : 1
Format : MPEG Audio
Format version : Version 1
Format profile : Layer 3
Codec ID : 55
Codec ID/Hint : MP3
Duration : 44mn 23s
Bit rate mode : Constant
Bit rate : 192 Kbps
Channel(s) : 2 channels
Sampling rate : 48.0 KHz
Stream size : 61.0 MiB (11%)
Alignment : Aligned on interleaves
Interleave, duration : 42 ms (1.00 video frame)
Interleave, preload duration : 504 ms
Audio #2
ID : 2
Format : MPEG Audio
Format version : Version 1
Format profile : Layer 3
Format_Settings_Mode : Joint stereo
Format_Settings_ModeExtension : MS Stereo
Codec ID : 55
Codec ID/Hint : MP3
Duration : 44mn 23s
Bit rate mode : Constant
Bit rate : 192 Kbps
Channel(s) : 2 channels
Sampling rate : 48.0 KHz
Stream size : 61.0 MiB (11%)
Alignment : Aligned on interleaves
Interleave, duration : 42 ms (1.00 video frame)
Interleave, preload duration : 504 ms
Writing library : LAME3.98.2ЄЄЄЄЄЄЄЄЄЄ
Внимание! Раздача ведётся путём добавления новых серий; при каждом добавлении создётся новый торрент. Чтобы начать докачку новой серии, пользователям необходимо сделать следующее: (1) остановить скачивание, (2) удалить старый торрент у себя из клиента (старые серии удалять не надо), (3) скачать новый торрент и запустить его у себя в клиенте вместо старого, при этом указать клиенту путь в старую папку куда и должно происходить скачивание новых серий.
Ваш клиент при этом должен произвести хеширование (проверку) старой папки (если не производит сам - помогите ему сделать это), и будет докачивать только те серии которых у вас ещё нет. Старые серии при этом не удаляются, а продолжают раздаваться!
Eсли вы уже удалили старые серии, то предотвратить повторную закачку старых серий можно, отжав галочку в соответсвующих местах при запуске нового торрента.


Добавлена 13 серия (финальная) в озвучке .
pb.wtf



Скачать Быть человеком через торрент http://piratbit.in.ua/d007907b714653e0cbcaa3aa16c6ff8b.jpg Скачать фильм Быть человеком через торрент бесплантно в хорошем качестве Описание: Сериал рассказывает о троих соседях: вампире, оборотне и привидении. Вампир не слишком успешно пытается обходиться без людей, ... 4.6 10 5
Info! Золотая раздача, скачанное не засчитывается.
Торрент: Зарегистрирован [2011-04-17 09:52] · скачан: 21 раз
Статус: √ проверено
Размер: 5.72 GB
Как cкачать? Как скачать Быть человеком через торрент | qTorrent

% Раздел Тема Автор DL S | L
Зарубежные сериалы [ 18.84 GB ] Быть человеком / Being Human US / Сезон: 4 / Серии: 1-13 из 13 [2014 WEB-DL 720p] MVO [DD LostFilm 5.1] + Original Messa-fan Скачать
1 | 0


Последний раз редактировалось: lyokaa (2012-09-19 05:51), всего редактировалось 14 раз(а)

28-11-2019 20:33  

Отключить всю рекламу на сайте

27-02-2011 20:37 Быть человеком Скачать торрент  

Болшое спосибки,сер.ал нормалёк!!!pb.wtf



01-03-2011 18:59 Быть человеком Скачать торрент  

когда продолжение?)pb.wtf



01-03-2011 20:40 Быть человеком Скачать торрент  

Mironu4
От Baibak, если никто не болеет и не связан обстоятельствами, то раз в неделю.pb.wtf



07-03-2011 21:20 Быть человеком Скачать торрент  

Мне нравиться!!!pb.wtf



12-04-2011 09:57 Быть человеком Скачать торрент  

Добавлены 9-12 серииpb.wtf



17-04-2011 09:53 Быть человеком Скачать торрент  

Добавлена 13 серия (финальная).pb.wtf



05-05-2011 16:57 Быть человеком Скачать торрент  

эт прикольный сериал. смотрел его на другом источнике онлайнpb.wtf



    Дорогой пользователь! Огромная просьба, поблагодарите релизера, оцените раздачу и оставьте свои комментарий, если Вы скачали Быть человеком через торрент бесплатно! Внесите свою лепту в развитие PiratBit!
    Комментировать посты могут только пользователи прошедшие не сложную регистрацию
    Показать сообщения:    

    Быть человеком через торрент
    Скачать бесплатно Быть человеком
    Быть человеком скачать торрент
    Быть человеком смотреть онлайн
    Cкачать фильм Быть человеком бесплатно
    Быть человеком скачать торрент в хорошем качестве
    Быть человеком смотреть онлайн бесплатно в хорошем качестве


    Вы не можете начинать темы
    Вы не можете отвечать на сообщения
    Вы не можете редактировать свои сообщения
    Вы не можете удалять свои сообщения
    Вы не можете голосовать в опросах
    Вы не можете прикреплять файлы к сообщениям
    Вы можете скачивать файлы