Достать ножи: Стеклянная луковица

MVO

Добыча

Дубляж

Уэнсдэй

1 сезон

Тор

Дубляж

13 клиническая

1 сезон

Жестокая ночь

MVO

Одни из нас

1 сезон

Deluxe

pack

Рекомендуем

30

Пиратка

ВАЖНО

ВАЖНО

Ghostwire

Пиратка

jed

RePack

nioh2

RePack

RDR2

RePack

NEED FOR SPEED™ PAYBACK

RePack

скачать торрент

Кинопоиск HD

Острые козырьки 6 сезон

6 сезон

FAR CRY 6

RePack

скачать торрент

Лицензия

скачать торрент

MVO

1

1 сезон

скачать торрент

1 сезон

скачать торрент

Лицензия

  

Однажды в Техасе / Death in Texas (Скотт Виндхаузер) [2020 г., боевик, драма, WEB-DLRip, Дубляж, Лицензия]

Однажды в Техасе через торрент pb.wtf

Раздают: 1 [ 0 KB/s ]
Размер: 720 MB | Добавлен: 2 мес. 27 д. назад | Торрент скачан:25 раз
Смотреть онлайн | Скачать | Поддержите нас   

02-11-2022 17:33 Однажды в Техасе Скачать торрент  

Однажды в Техасе / Death in Texas
Год выпуска: 2020
Страна: США / BrandTone Films, Ahuevo Films
Жанр: боевик, драма
Продолжительность: 01:41:22
Перевод: Дубляж (Лицензия)
«Когда ваш лучший вариант - плохой выбор»

Режиссер: Скотт Виндхаузер

rating

В ролях: Брюс Дерн, Ронни Джин Блевинс, Кларк Харрис, Дэниэл Стивен Гонсалес, Вероника Бёрджесс, Лара Флинн Бойл, Крэйг Най, Сэм Дэйли, Рокко Рейс, Нейла Канту

Описание: После семи лет заключения Билли Уокер наконец-то выходит из тюрьмы. Дома он узнает, что его мать смертельно больна. Врачи говорят, что жить ей осталось совсем немного и найти донора в такие короткие сроки будет трудно. Билли решает взять ситуацию в свои руки и готов на все, чтобы спасти свою мать. Но для бывшего заключенного есть только один способ быстро найти деньги.

Качество: WEB-DLRip
Формат: AVI
Видео кодек: DivX
Аудио кодек: MP3
Видео: MPEG4, DivX 4, 640x272 (2.35:1), 23.976 fps, 856 kb/s (0.205 bit/pixel)
Аудио#2: MP3, 48.0 kHz, 2 ch, 128 kb/s, CBR
General
Complete name : G:\ФИЛЬМЫ\Однажды в Техасе.2020.D.WEB-DLRip.avi
Format : AVI
Format/Info : Audio Video Interleave
File size : 720 MiB
Duration : 1 h 41 min
Overall bit rate : 993 kb/s
Writing application : VirtualDubMod 1.5.10.3 | www.virtualdub-fr.org || (build 2550/release)
Writing library : VirtualDubMod build 2550/release

Video
ID : 0
Format : MPEG-4 Visual
Format profile : Advanced [email protected]
Format settings : BVOP2
Format settings, BVOP : 2
Format settings, QPel : No
Format settings, GMC : No warppoints
Format settings, Matrix : Default (MPEG)
Codec ID : DIVX
Codec ID/Info : Project Mayo
Codec ID/Hint : DivX 4
Duration : 1 h 41 min
Bit rate : 856 kb/s
Width : 640 pixels
Height : 272 pixels
Display aspect ratio : 2.35:1
Frame rate : 23.976 (24000/1001) FPS
Color space : YUV
Chroma subsampling : 4:2:0
Bit depth : 8 bits
Scan type : Progressive
Compression mode : Lossy
Bits/(Pixel*Frame) : 0.205
Stream size : 621 MiB (86%)
Writing library : XviD 1.2.1 (UTC 2008-12-04)

Audio
ID : 1
Format : MPEG Audio
Format version : Version 1
Format profile : Layer 3
Format settings : Joint stereo
Codec ID : 55
Codec ID/Hint : MP3
Duration : 1 h 41 min
Bit rate mode : Constant
Bit rate : 128 kb/s
Channel(s) : 2 channels
Sampling rate : 48.0 kHz
Frame rate : 41.667 FPS (1152 SPF)
Compression mode : Lossy
Stream size : 92.8 MiB (13%)
Alignment : Aligned on interleaves
Interleave, duration : 42 ms (1.00 video frame)
Interleave, preload duration : 504 ms
Writing library : LAME3.99r
Encoding settings : -m j -V 4 -q 2 -lowpass 17 -b 128




Скачать Однажды в Техасе через торрент https://i120.fastpic.org/big/2022/1102/9f/34aceefc5fb81ef233784b56f857d19f.jpg Скачать, смотреть онлайн Однажды в Техасе бесплантно в хорошем качестве Описание: После семи лет заключения Билли Уокер наконец-то выходит из тюрьмы. Дома он узнает, что его мать смертельно больна. Врачи ... 10 10 4
Торрент: Зарегистрирован [2022-11-02 17:33] · скачан: 25 раз
Статус: √ проверено
Размер: 720 MB
Как cкачать? Как скачать Однажды в Техасе через торрент | UTorrent

% Раздел Тема Автор DL S | L
Фильмы (WEB-DL 720p, 1080p) [ 7.3 GB ] Однажды в Техасе / Death in Texas | Лицензия | 1080p bober100 Скачать
2 | 0
Фильмы 2019-2020 [DVDrip, WEB-DLRip, HDrip] (DUB, MVO) [ 1.46 GB ] Однажды в Техасе / Death in Texas | Лицензия | DLRip bober100 Скачать
3 | 0

28-11-2019 20:33  


Отключить вcю реклaмy на сайте, в т.ч. и в плеере онлайн просмотра!

    Дорогой пользователь! Огромная просьба, поблагодарите релизера, оцените раздачу и оставьте свои комментарий, если Вы скачали Однажды в Техасе через торрент бесплатно!!
    Комментировать посты могут только пользователи прошедшие не сложную регистрацию
    Показать сообщения:    


    Однажды в Техасе через торрент
    Скачать бесплатно Однажды в Техасе
    Однажды в Техасе скачать торрент
    Однажды в Техасе смотреть онлайн
    Cкачать фильм Однажды в Техасе бесплатно
    Однажды в Техасе скачать торрент в хорошем качестве
    Однажды в Техасе смотреть онлайн бесплатно в хорошем качестве
    Вы не можете начинать темы
    Вы не можете отвечать на сообщения
    Вы не можете редактировать свои сообщения
    Вы не можете удалять свои сообщения
    Вы не можете голосовать в опросах
    Вы не можете прикреплять файлы к сообщениям
    Вы можете скачивать файлы
    Однажды в Техасе / Death in Texas [2020 г., боевик, драма, WEB-DLRip, Дубляж, Лицензия] смотреть онлайн, скачать торрент picoco.icu