Достать ножи: Стеклянная луковица

MVO

Добыча

Дубляж

Уэнсдэй

1 сезон

Тор

Дубляж

13 клиническая

1 сезон

Жестокая ночь

MVO

Одни из нас

1 сезон

Deluxe

pack

Рекомендуем

30

Пиратка

ВАЖНО

ВАЖНО

Ghostwire

Пиратка

jed

RePack

nioh2

RePack

RDR2

RePack

NEED FOR SPEED™ PAYBACK

RePack

скачать торрент

Кинопоиск HD

Острые козырьки 6 сезон

6 сезон

FAR CRY 6

RePack

скачать торрент

Лицензия

скачать торрент

MVO

1

1 сезон

скачать торрент

1 сезон

скачать торрент

Лицензия

  

Рога / Horns (Александр Ажа / Alexandre Aja) [2013, США, Канада, фэнтези, триллер, драма, BDRip - HEVC 1080p 10 bit 60 FPS, MVO]

Рога через торрент pb.wtf

Раздают: 2 [ 0 KB/s ] Качают: 1 [ 0 KB/s ]
Размер: 4.99 GB | Добавлен: 3 мес. 3 д. назад | Торрент скачан:88 раз
Смотреть онлайн | Скачать | Поддержите нас   

03-11-2022 20:03 Рога Скачать торрент  

Horns
«Каждый демон - бывший ангел»
Информация о фильме:
Название: Рога
Оригинальное название: Horns
Год выхода: 2013
Жанр: Фэнтези, триллер, драма, ужасы
Режиссер: Александр Ажа
В ролях: Дэниэл Рэдклифф, Джуно Темпл, Макс Мингелла, Джо Андерсон, Келли Гарнер, Джеймс Римар, Кэтлин Куинлен, Хэзер Грэм, Дэвид Морс, Майкл Адамуэйт
Описание: История простого американского парня по имени Иг Перриш, который просыпается рано утром с диким похмельем и обнаруживает, что у него на голове выросли настоящие рога.

Вместе с рогами у героя появляется еще одно дьявольское качество: в присутствии Перриша люди начинают говорить то, что думают на самом деле, и все грязные секреты оказываются на поверхности. Теперь Иг может узнать, кто на самом деле убил его девушку, поскольку в этом преступлении обвиняют его самого, хоть и бездоказательно.


Страна: США, Канада
Студия: Red Granite Pictures, Mandalay Pictures
Продолжительность: 01:59:55
Перевод: Профессиональный (многоголосый, закадровый) | R5
Перевод: Профессиональный (многоголосый, закадровый)| Гремлины (DTS by Perevodman)
Субтитры: русские | MartinaG
Навигация по главам: есть
Информация о файле:
Качество: BDRip - HEVC 1080p Rip by DD2D3
Формат: MKV
Видео: V_MPEGH/ISO/HEVC; 1920x804 (2.40:1); 3882 Kbps; 60 fps; 0,042 bpp
Аудио: русский; DTS; 1509 Kbps; CBR; 6 ch; 24 bit ||
Аудио: русский; AC3; 448 Kbps; CBR; 6 ch ||
Доп. информация: нет

Общее
Уникальный идентификатор : 205520652504879350195999954430291553201 (0x9A9DD67FA0340ADF9572A53010072BB1)
Полное имя : E:\Horns (2013) BDRip - HEVC 1080p 10 bit 60 FPS.mkv
Формат : Matroska
Версия формата : Version 2
Размер файла : 4,99 Гбайт
Продолжительность : 1 ч. 59 м.
Общий поток : 5 958 Кбит/сек
Название фильма : Rip by from DD2D3
Дата кодирования : UTC 2022-11-03 19:05:43
Программа кодирования : mkvmerge v7.8.0 ('River Man') 32bit built on Apr 3 2015 12:11:22
Библиотека кодирования : libebml v1.3.1 + libmatroska v1.4.2
Attachments : poster

Видео
Идентификатор : 1
Формат : HEVC
Формат/Информация : High Efficiency Video Coding
Профиль формата : Main [email protected]@Main
Идентификатор кодека : V_MPEGH/ISO/HEVC
Продолжительность : 1 ч. 59 м.
Битрейт : 3 883 Кбит/сек
Ширина : 1 920 пикселей
Высота : 804 пикселя
Соотношение сторон : 2,40:1
Режим частоты кадров : Постоянный
Частота кадров : 60,000 кадров/сек
Цветовое пространство : YUV
Субдискретизация насыщенности : 4:2:0
Битовая глубина : 10 бит
Бит/(Пиксели*Кадры) : 0.042
Размер потока : 3,25 Гбайт (65%)
Библиотека кодирования : x265 3.5+20-17839cc0d:[Windows][GCC 11.2.0][64 bit] 10bit
Настройки программы : cpuid=1111039 / frame-threads=2 / numa-pools=4 / wpp / no-pmode / no-pme / no-psnr / no-ssim / log-level=2 / input-csp=1 / input-res=1920x804 / interlace=0 / total-frames=431707 / level-idc=41 / high-tier=1 / uhd-bd=0 / ref=1 / no-allow-non-conformance / no-repeat-headers / annexb / no-aud / no-eob / no-eos / no-hrd / info / hash=0 / no-temporal-layers / open-gop / min-keyint=5 / keyint=240 / gop-lookahead=0 / bframes=3 / b-adapt=0 / b-pyramid / bframe-bias=0 / rc-lookahead=5 / lookahead-slices=5 / scenecut=0 / no-hist-scenecut / radl=0 / no-splice / no-intra-refresh / ctu=32 / min-cu-size=16 / no-rect / no-amp / max-tu-size=8 / tu-inter-depth=1 / tu-intra-depth=1 / limit-tu=0 / rdoq-level=0 / dynamic-rd=0.00 / no-ssim-rd / no-signhide / no-tskip / nr-intra=0 / nr-inter=0 / no-constrained-intra / strong-intra-smoothing / max-merge=2 / limit-refs=0 / no-limit-modes / me=0 / subme=0 / merange=57 / temporal-mvp / no-frame-dup / no-hme / no-weightp / no-weightb / no-analyze-src-pics / deblock=0:0 / no-sao / no-sao-non-deblock / rd=2 / selective-sao=0 / early-skip / rskip / fast-intra / no-tskip-fast / no-cu-lossless / no-b-intra / no-splitrd-skip / rdpenalty=0 / psy-rd=2.00 / psy-rdoq=0.00 / no-rd-refine / no-lossless / cbqpoffs=-2 / crqpoffs=-2 / rc=abr / bitrate=3750 / qcomp=0.70 / qpstep=4 / stats-write=0 / stats-read=0 / ipratio=1.38 / pbratio=1.28 / aq-mode=1 / aq-strength=0.00 / cutree / zone-count=0 / no-strict-cbr / qg-size=32 / no-rc-grain / qpmax=69 / qpmin=0 / no-const-vbv / sar=1 / overscan=0 / videoformat=5 / range=0 / colorprim=1 / transfer=1 / colormatrix=1 / chromaloc=0 / display-window=0 / cll=0,0 / min-luma=0 / max-luma=1023 / log2-max-poc-lsb=8 / vui-timing-info / vui-hrd-info / slices=1 / no-opt-qp-pps / no-opt-ref-list-length-pps / no-multi-pass-opt-rps / scenecut-bias=0.05 / hist-threshold=0.03 / no-opt-cu-delta-qp / no-aq-motion / no-hdr10 / no-hdr10-opt / no-dhdr10-opt / no-idr-recovery-sei / analysis-reuse-level=0 / analysis-save-reuse-level=0 / analysis-load-reuse-level=0 / scale-factor=0 / refine-intra=0 / refine-inter=0 / refine-mv=1 / refine-ctu-distortion=0 / no-limit-sao / ctu-info=0 / no-lowpass-dct / refine-analysis-type=0 / copy-pic=1 / max-ausize-factor=1.0 / no-dynamic-refine / no-single-sei / no-hevc-aq / no-svt / no-field / qp-adaptation-range=1.00 / scenecut-aware-qp=0conformance-window-offsets / right=0 / bottom=0 / decoder-max-rate=0 / no-vbv-live-multi-pass
Default : Да
Forced : Нет
Цветовой диапазон : Limited
Основные цвета : BT.709
Характеристики трансфера : BT.709
Коэффициенты матрицы : BT.709

Аудио #1
Идентификатор : 2
Формат : AC-3
Формат/Информация : Audio Coding 3
Коммерческое название : Dolby Digital
Идентификатор кодека : A_AC3
Продолжительность : 1 ч. 59 м.
Вид битрейта : Постоянный
Битрейт : 448 Кбит/сек
Каналы : 6 каналов
Channel layout : L R C LFE Ls Rs
Частота : 48,0 КГц
Частота кадров : 31,250 кадров/сек (1536 SPF)
Метод сжатия : С потерями
Размер потока : 384 Мбайт (8%)
Заголовок : MVO R5
Язык : Russian
Service kind : Complete Main
Default : Да
Forced : Нет
Statistics Tags Issue : mkvmerge v8.9.0 ('Father Daughter') 64bit 2018-10-04 11:48:56 / mkvmerge v7.8.0 ('River Man') 32bit built on Apr 3 2015 12:11:22 2022-11-03 19:05:43
FromStats_BitRate : 448000
FromStats_Duration : 01:59:53.056000000
FromStats_FrameCount : 224783
FromStats_StreamSize : 402811136

Аудио #2
Идентификатор : 3
Формат : DTS
Формат/Информация : Digital Theater Systems
Идентификатор кодека : A_DTS
Продолжительность : 1 ч. 59 м.
Вид битрейта : Постоянный
Битрейт : 1 509 Кбит/сек
Каналы : 6 каналов
Channel layout : C L R Ls Rs LFE
Частота : 48,0 КГц
Частота кадров : 93,750 кадра/сек (512 SPF)
Битовая глубина : 24 бит
Метод сжатия : С потерями
Размер потока : 1,26 Гбайт (25%)
Заголовок : MVO Гремлины (DTS by Perevodman)
Язык : Russian
Default : Нет
Forced : Нет
Statistics Tags Issue : mkvmerge v8.9.0 ('Father Daughter') 64bit 2018-10-04 11:48:56 / mkvmerge v7.8.0 ('River Man') 32bit built on Apr 3 2015 12:11:22 2022-11-03 19:05:43
FromStats_BitRate : 1508999
FromStats_Duration : 01:59:55.190000000
FromStats_FrameCount : 674549
FromStats_StreamSize : 1357192588

Текст
Идентификатор : 4
Формат : UTF-8
Идентификатор кодека : S_TEXT/UTF8
Идентификатор кодека/Информация : UTF-8 Plain Text
Заголовок : ruSUB MartinaG
Язык : Russian
Default : Нет
Forced : Нет
Statistics Tags Issue : mkvmerge v8.9.0 ('Father Daughter') 64bit 2018-10-04 11:48:56 / mkvmerge v7.8.0 ('River Man') 32bit built on Apr 3 2015 12:11:22 2022-11-03 19:05:43
FromStats_BitRate : 82
FromStats_Duration : 01:52:57.944000000
FromStats_FrameCount : 1235
FromStats_StreamSize : 69551

Меню
00:00:00.000 : en:00:00:00.000
00:05:01.551 : en:00:05:01.551
00:13:51.205 : en:00:13:51.205
00:18:19.640 : en:00:18:19.640
00:23:42.796 : en:00:23:42.796
00:29:14.169 : en:00:29:14.169
00:36:15.465 : en:00:36:15.465
00:43:39.659 : en:00:43:39.659
00:48:22.358 : en:00:48:22.358
00:53:12.981 : en:00:53:12.981
00:58:10.612 : en:00:58:10.612
01:05:06.111 : en:01:05:06.111
01:12:16.374 : en:01:12:16.374
01:15:58.179 : en:01:15:58.179
01:22:32.197 : en:01:22:32.197
01:26:56.795 : en:01:26:56.795
01:33:51.000 : en:01:33:51.000
01:38:29.195 : en:01:38:29.195
01:43:39.213 : en:01:43:39.213
01:54:02.127 : en:01:54:02.127




Скачать Рога через торрент https://st-kp-yandex-net.translate.goog/images/film_iphone/iphone360_484425.jpg Скачать, смотреть онлайн Рога бесплантно в хорошем качестве Описание: История простого американского парня по имени Иг Перриш, который просыпается рано утром с диким похмельем и обнаруживает, что у ... 5 10 1
Торрент: Зарегистрирован [2022-11-03 20:03] · скачан: 88 раз
Статус: √ проверено
Размер: 4.99 GB
Как cкачать? Как скачать Рога через торрент | UTorrent

% Раздел Тема Автор DL S | L
Фильмы 2013 [DVDrip, WEB-DLRip, HDrip] [ 2.18 GB ] Рога / Horns | Лицензия | BDRip-AVC от potroks potroks Скачать
1 | 0
Фильмы 2013 [DVDrip, WEB-DLRip, HDrip] [ 2.91 GB ] Рога / Horns | Лицензия | BDRip-AVC от sokol_ok sokol_ok Скачать
2 | 0
Фильмы 2013 [DVDrip, WEB-DLRip, HDrip] [ 1.41 GB ] Рога / Horns | | DLRip-AVC, White Smoke Скачать
1 | 0
Фильмы 2013 [DVDrip, WEB-DLRip, HDrip] [ 1.46 GB ] Рога / Horns | Лицензия | BDRip-AVC от sokol_ok sokol_ok Скачать
2 | 0

28-11-2019 20:33  


Отключить вcю реклaмy на сайте, в т.ч. и в плеере онлайн просмотра!

    Дорогой пользователь! Огромная просьба, поблагодарите релизера, оцените раздачу и оставьте свои комментарий, если Вы скачали Рога через торрент бесплатно!!
    Комментировать посты могут только пользователи прошедшие не сложную регистрацию
    Показать сообщения:    


    Рога через торрент
    Скачать бесплатно Рога
    Рога скачать торрент
    Рога смотреть онлайн
    Cкачать фильм Рога бесплатно
    Рога скачать торрент в хорошем качестве
    Рога смотреть онлайн бесплатно в хорошем качестве
    Вы не можете начинать темы
    Вы не можете отвечать на сообщения
    Вы не можете редактировать свои сообщения
    Вы не можете удалять свои сообщения
    Вы не можете голосовать в опросах
    Вы не можете прикреплять файлы к сообщениям
    Вы можете скачивать файлы
    Рога / Horns [2013, США, Канада, фэнтези, триллер, драма, BDRip - HEVC 1080p 10 bit 60 FPS, MVO] смотреть онлайн, скачать торрент picoco.icu