Достать ножи: Стеклянная луковица

MVO

Добыча

Дубляж

Уэнсдэй

1 сезон

Тор

Дубляж

13 клиническая

1 сезон

Жестокая ночь

MVO

Одни из нас

1 сезон

Deluxe

pack

Рекомендуем

30

Пиратка

ВАЖНО

ВАЖНО

Ghostwire

Пиратка

jed

RePack

nioh2

RePack

RDR2

RePack

NEED FOR SPEED™ PAYBACK

RePack

скачать торрент

Кинопоиск HD

Острые козырьки 6 сезон

6 сезон

FAR CRY 6

RePack

скачать торрент

Лицензия

скачать торрент

MVO

1

1 сезон

скачать торрент

1 сезон

скачать торрент

Лицензия

  

Чёрный Адам / Black Adam (Жауме Кольет-Серра) [2022, Фантастика, фэнтези, боевик, приключения, BD Remux 1080p] 2xDUB (rus, ukr) [Bravo Records Georgia, Red Head Sound]

Чёрный Адам через торрент pb.wtf

Раздают: 6 [ 866 KB/s ] Качают: 1 [ 0 KB/s ]
Размер: 24.12 GB | Добавлен: 1 мес. 5 д. назад | Торрент скачан:112 раз
Смотреть онлайн | Скачать | Поддержите нас   

08-11-2022 20:16 Чёрный Адам Скачать торрент  

Чёрный Адам
Black Adam

Год выпуска: 2022
Страна: США
Выпущено: Warner Bros., DC Entertainment, New Line Cinema Seven Bucks Productions, Flynn Picture Company
Жанр: Фантастика, фэнтези, боевик, приключения
Продолжительность: 02:04:52
Перевод:
Дублированный | Bravo Records Georgia
Дублированный | Red Head Sound
Субтитры: Русские (Forced, Full), английские (Forced), украинские

Режиссер: Жауме Кольет-Серра

rating

В ролях: Дуэйн Джонсон, Сара Шахи, Виола Дэвис, Пирс Броснан, Ной Сентинео, Элдис Ходж, Куинтесса Суинделл, Оделя Алеви, Энджел Розарио мл., Джозеф Гатт

Описание: 5000 лет назад Чёрный Адам был наделен силами египетских богов и заключён в тюрьму. Теперь он освобождается из своей усыпальницы и готовится явить миру уникальный подход к борьбе за справедливость. Фантастический боевик «Черный Адам» станет одиннадцатым фильмом в расширенной киновселенной DC. Сначала предполагалось, что первое появление супергероя на экранах состоится в фильме 2019 «Шазам!», однако впоследствии планы продюсеров изменились. Известно, что персонаж в исполнении Дуэйна Джонсона появится в сольном фильме, а также в продолжении «Шазама!». О своем желании воплотить Черного Адама на большом экране Джонсон впервые заявил еще в 2014 году. По словам актера, он с детства примерял на себя именно этого героя комиксов. Адама придумали в 1945 году Отто Биндер и Си Си Бек.

Качество: BD Remux 1080p
Формат: MKV

Видео: MPEG-4 AVC, 23.1 Mb/s, 1920x1080, 23.976 fps
Аудио #01: 48 kHz, AC3, 5.1, 384 Kbps | Дублированный | Bravo Records Georgia | RUS |
Аудио #02: 48 kHz, AC3, 5.1, 448 Kbps | Дублированный | Red Head Sound | RUS |
Аудио #03: 48 kHz, AC3, 5.1, 384 Kbps | Дублированный | Postmodern | UKR |
Аудио #04: 48 kHz, TrueHD Atmos, 7.1, 3289 Kbps | Оригинал | ENG |
скриншот  скриншот  скриншот  скриншот  

Complete name : Black.Adam.2022.BDREMUX.1080p.ELEKTRI4KA.UNIONGANG.mkv
Format : Matroska
Format version : Version 4
File size : 24.1 GiB
Duration : 2 h 4 min
Overall bit rate mode : Variable
Overall bit rate : 27.7 Mb/s
Movie name : Black.Adam.2022.BDREMUX.1080p.ELEKTRI4KA.UNIONGANG.
Encoded date : UTC 2023-01-02 12:34:52
Writing application : mkvmerge v8.3.0 ('Over the Horizon') 64bit
Writing library : libebml v1.3.1 + libmatroska v1.4.2

Video
ID : 1
Format : AVC
Format/Info : Advanced Video Codec
Format profile : [email protected]
Format settings : CABAC / 2 Ref Frames
Format settings, CABAC : Yes
Format settings, Reference frames : 2 frames
Format settings, GOP : M=1, N=10
Codec ID : V_MPEG4/ISO/AVC
Duration : 2 h 4 min
Bit rate mode : Variable
Bit rate : 23.1 Mb/s
Width : 1 920 pixels
Height : 1 080 pixels
Display aspect ratio : 16:9
Frame rate mode : Constant
Frame rate : 23.976 (24000/1001) FPS
Color space : YUV
Chroma subsampling : 4:2:0
Bit depth : 8 bits
Scan type : Progressive
Bits/(Pixel*Frame) : 0.464
Stream size : 20.1 GiB (83%)
Language : English
Default : Yes
Forced : No

Audio #1
ID : 2
Format : AC-3
Format/Info : Audio Coding 3
Commercial name : Dolby Digital
Codec ID : A_AC3
Duration : 2 h 4 min
Bit rate mode : Constant
Bit rate : 384 kb/s
Channel(s) : 6 channels
Channel layout : L R C LFE Ls Rs
Sampling rate : 48.0 kHz
Frame rate : 31.250 FPS (1536 SPF)
Compression mode : Lossy
Stream size : 343 MiB (1%)
Title : Дубляж (Bravo Records Georgia)
Language : Russian
Service kind : Complete Main
Default : Yes
Forced : Yes

Audio #2
ID : 3
Format : AC-3
Format/Info : Audio Coding 3
Commercial name : Dolby Digital
Codec ID : A_AC3
Duration : 2 h 4 min
Bit rate mode : Constant
Bit rate : 448 kb/s
Channel(s) : 6 channels
Channel layout : L R C LFE Ls Rs
Sampling rate : 48.0 kHz
Frame rate : 31.250 FPS (1536 SPF)
Compression mode : Lossy
Stream size : 400 MiB (2%)
Title : Дубляж (Red Head Sound)
Language : Russian
Service kind : Complete Main
Default : No
Forced : No

Audio #3
ID : 4
Format : AC-3
Format/Info : Audio Coding 3
Commercial name : Dolby Digital
Codec ID : A_AC3
Duration : 2 h 4 min
Bit rate mode : Constant
Bit rate : 384 kb/s
Channel(s) : 6 channels
Channel layout : L R C LFE Ls Rs
Sampling rate : 48.0 kHz
Frame rate : 31.250 FPS (1536 SPF)
Compression mode : Lossy
Stream size : 343 MiB (1%)
Title : Дубляж (Postmodern) UKR
Language : Ukrainian
Service kind : Complete Main
Default : No
Forced : No

Audio #4
ID : 5
Format : MLP FBA 16-ch
Format/Info : Meridian Lossless Packing FBA with 16-channel presentation
Commercial name : Dolby TrueHD with Dolby Atmos
Codec ID : A_TRUEHD
Duration : 2 h 4 min
Bit rate mode : Variable
Bit rate : 3 289 kb/s
Maximum bit rate : 4 554 kb/s
Channel(s) : 8 channels
Channel layout : L R C LFE Ls Rs Lb Rb
Sampling rate : 48.0 kHz
Frame rate : 1 200.000 FPS (40 SPF)
Compression mode : Lossless
Stream size : 2.87 GiB (12%)
Title : Original
Language : English
Default : No
Forced : No
Number of dynamic objects : 11
Bed channel count : 1 channel
Bed channel configuration : LFE

Text #1
ID : 6
Format : UTF-8
Codec ID : S_TEXT/UTF8
Codec ID/Info : UTF-8 Plain Text
Duration : 2 h 3 min
Bit rate : 4 b/s
Frame rate : 0.014 FPS
Count of elements : 102
Stream size : 3.87 KiB (0%)
Title : Forced
Language : Russian
Default : Yes
Forced : Yes

Text #2
ID : 7
Format : UTF-8
Codec ID : S_TEXT/UTF8
Codec ID/Info : UTF-8 Plain Text
Duration : 2 h 3 min
Bit rate : 68 b/s
Frame rate : 0.175 FPS
Count of elements : 1297
Stream size : 62.0 KiB (0%)
Title : Full
Language : Russian
Default : No
Forced : No

Text #3
ID : 8
Format : UTF-8
Codec ID : S_TEXT/UTF8
Codec ID/Info : UTF-8 Plain Text
Duration : 1 h 55 min
Bit rate : 4 b/s
Frame rate : 0.014 FPS
Count of elements : 100
Stream size : 3.71 KiB (0%)
Title : Forced
Language : Ukrainian
Default : No
Forced : No

Text #4
ID : 9
Format : UTF-8
Codec ID : S_TEXT/UTF8
Codec ID/Info : UTF-8 Plain Text
Duration : 1 h 42 min
Bit rate : 2 b/s
Frame rate : 0.012 FPS
Count of elements : 76
Stream size : 1.61 KiB (0%)
Title : Forced
Language : English
Default : No
Forced : No

Text #5
ID : 10
Format : UTF-8
Codec ID : S_TEXT/UTF8
Codec ID/Info : UTF-8 Plain Text
Duration : 1 h 56 min
Bit rate : 58 b/s
Frame rate : 0.253 FPS
Count of elements : 1769
Stream size : 50.2 KiB (0%)
Language : English
Default : No
Forced : No

Menu
00:00:00.000 : en:Chapter 01
00:10:23.581 : en:Chapter 02
00:19:57.613 : en:Chapter 03
00:29:29.893 : en:Chapter 04
00:38:35.146 : en:Chapter 05
00:50:42.081 : en:Chapter 06
01:00:21.409 : en:Chapter 07
01:09:44.722 : en:Chapter 08
01:19:36.271 : en:Chapter 09
01:29:12.305 : en:Chapter 10
01:40:20.389 : en:Chapter 11
01:49:40.991 : en:Chapter 12
01:53:13.078 : en:Chapter 13




Скачать Чёрный Адам через торрент https://i121.fastpic.org/big/2022/1219/2d/b96104a77060e06ee556006f2f03d62d.jpg Скачать, смотреть онлайн Чёрный Адам бесплантно в хорошем качестве Описание: 5000 лет назад Чёрный Адам был наделен силами египетских богов и заключён в тюрьму. Теперь он освобождается из своей усыпальницы ... 8.9 10 43
Info! Золотая раздача, скачанное не засчитывается.
Торрент: Зарегистрирован [2023-01-02 19:14] · скачан: 112 раз
Статус: √ проверено
Размер: 24.12 GB
Как cкачать? Как скачать Чёрный Адам через торрент | UTorrent

% Раздел Тема Автор DL S | L
Фильмы (WEB-DL 720p, 1080p) [ 8.93 GB ] Чёрный Адам / Black Adam | Jaskier | 1080p bober100 Скачать
25 | 1
Фильмы [HD 720p, 1080p] (Хороший звук DUB, MVO) [ 7.27 GB ] Чёрный Адам / Black Adam | DUB | 720p bober100 Скачать
11 | 0
Фильмы [HD 720p, 1080p] (Хороший звук DUB, MVO) [ 12.74 GB ] Чёрный Адам / Black Adam | DUB | 1080p bober100 Скачать
11 | 0
T Фильмы 2022-2023 [DVDrip, WEB-DLRip, HDrip] (DUB, MVO) [ 1.46 GB ] Чёрный Адам / Black Adam | NewComers | WEBRip bober100 Скачать
39 | 0
Фильмы 2022-2023 [DVDrip, WEB-DLRip, HDrip] (DUB, MVO) [ 2.41 GB ] Чёрный Адам / Black Adam | DUB | DLRip-AVC bober100 Скачать
49 | 0
Фильмы 2022-2023 [DVDrip, WEB-DLRip, HDrip] (DUB, MVO) [ 2.18 GB ] Чёрный Адам / Black Adam | DUB | BDRip bober100 Скачать
3 | 1
Фильмы 2022-2023 [DVDrip, WEB-DLRip, HDrip] (DUB, MVO) [ 1.46 GB ] Чёрный Адам / Black Adam | DUB | BDRip bober100 Скачать
10 | 0



Последний раз редактировалось: bober100 (2023-01-02 19:44), всего редактировалось 7 раз(а)

28-11-2019 20:33  


Отключить вcю реклaмy на сайте, в т.ч. и в плеере онлайн просмотра!

20-11-2022 14:18 Чёрный Адам Скачать торрент  

Как по мне - так фильм получился неплохой. Много экшена, много спецэффектов, интересный сюжет, и хронометраж нормальный. На один раз, да под пивко - так вообще здорово!



26-11-2022 08:03 Чёрный Адам Скачать торрент  

вполне достойный фильм, экшен есть, эфекты на уровне, Скала как всегда скала!



    Дорогой пользователь! Огромная просьба, поблагодарите релизера, оцените раздачу и оставьте свои комментарий, если Вы скачали Чёрный Адам через торрент бесплатно!!
    Комментировать посты могут только пользователи прошедшие не сложную регистрацию
    Показать сообщения:    


    Чёрный Адам через торрент
    Скачать бесплатно Чёрный Адам
    Чёрный Адам скачать торрент
    Чёрный Адам смотреть онлайн
    Cкачать фильм Чёрный Адам бесплатно
    Чёрный Адам скачать торрент в хорошем качестве
    Чёрный Адам смотреть онлайн бесплатно в хорошем качестве
    Вы не можете начинать темы
    Вы не можете отвечать на сообщения
    Вы не можете редактировать свои сообщения
    Вы не можете удалять свои сообщения
    Вы не можете голосовать в опросах
    Вы не можете прикреплять файлы к сообщениям
    Вы можете скачивать файлы
    Чёрный Адам / Black Adam [2022, Фантастика, фэнтези, боевик, приключения, BD Remux 1080p] 2xDUB [Bravo Records Georgia, Red Head Sound] смотреть онлайн, скачать торрент picoco.icu