Достать ножи: Стеклянная луковица

MVO

Добыча

Дубляж

Уэнсдэй

1 сезон

Тор

Дубляж

13 клиническая

1 сезон

Жестокая ночь

MVO

Одни из нас

1 сезон

Deluxe

pack

Рекомендуем

30

Пиратка

ВАЖНО

ВАЖНО

Ghostwire

Пиратка

jed

RePack

nioh2

RePack

RDR2

RePack

NEED FOR SPEED™ PAYBACK

RePack

скачать торрент

Кинопоиск HD

Острые козырьки 6 сезон

6 сезон

FAR CRY 6

RePack

скачать торрент

Лицензия

скачать торрент

MVO

1

1 сезон

скачать торрент

1 сезон

скачать торрент

Лицензия

  

Уэнделл и Уайлд / Wendell & Wild (Генри Селик) [2022, Мультфильм, фэнтези, комедия, приключения, семейный, WEB-DL 1080p] MVO [TVShows]

Уэнделл и Уайлд через торрент pb.wtf

Раздают: 6 [ 1 KB/s ]
Размер: 3.67 GB | Добавлен: 2 мес. 27 д. назад | Торрент скачан:189 раз
Смотреть онлайн | Скачать | Поддержите нас   

10-11-2022 07:50 Уэнделл и Уайлд Скачать торрент  

Уэнделл и Уайлд
Wendell & Wild

Год выпуска: 2022
Страна: США
Выпущено: Artists First, Gotham Group, Monkeypaw Productions
Жанр: Мультфильм, фэнтези, комедия, приключения, семейный
Продолжительность: 01:46:28
Перевод: Профессиональный (многоголосый) | TVShows
Субтитры: Русские, английские

Режиссер: Генри Селик

rating

В ролях: Лирик Росс, Кигэн-Майкл Ки, Джордан Пил, Анджела Бассетт, Джеймс Хун, Сэм Селайя, Тамара Смарт, Сима Вирди, Рамона Янг, Винг Реймз, Мишель Мариана, Натали Мартинес, Танту Кардинал, Игал Наор, Гари Гейтвуд

Описание: Два брата-демона уже достаточно давненько по времени противостоят монахине, способной на профессиональном уровне изгонять всю нечисть обратно в преисподнюю. Непосредственными её помощниками становятся приятели, которые обожают ходить в одеянии готов. Противостояние принимает крупномасштабный оборот, действительно в совершенно непредсказуемый момент.

Качество: WEB-DL 1080p
Формат: MKV

Видео: MPEG-4 AVC, 3804 Кбит/с, 1920x1080
Аудио #1: AC3, 2 ch, 192 Кбит/с | RUS |
Аудио #2: E-AC3 JOC, 6 ch, 768 Кбит/с | ENG |
скриншот  скриншот  скриншот  скриншот  

General
Unique ID: 167074213443794477729870512149870417427 (0x7DB152B41A0D351D947E481DB7941613)
Complete name: E:TorrentsWendell.and.Wild.2022.1080p_от New-Team_JNS82.mkv
Format: Matroska
Format version: Version 4
File size: 3.67 GiB
Duration: 1 h 46 min
Overall bit rate mode: Variable
Overall bit rate: 4 933 kb/s
Movie name: Wendell.and.Wild.2022.1080p_от New-Team_JNS82
Encoded date: UTC 2022-11-10 06:23:33
Writing application: mkvmerge v59.0.0 ('Shining Star') 64-bit
Writing library: libebml v1.4.2 + libmatroska v1.6.4

Video
ID: 1
Format: AVC
Format/Info: Advanced Video Codec
Format profile: [email protected]
Format settings: CABAC / 3 Ref Frames
Format settings, CABAC: Yes
Format settings, Reference: 3 frames
Codec ID: V_MPEG4/ISO/AVC
Duration: 1 h 46 min
Bit rate mode: Variable
Bit rate: 3 804 kb/s
Maximum bit rate: 7 305 kb/s
Width: 1 920 pixels
Height: 1 080 pixels
Display aspect ratio: 16:9
Frame rate mode: Constant
Frame rate: 24.000 FPS
Color space: YUV
Chroma subsampling: 4:2:0
Bit depth: 8 bits
Scan type: Progressive
Bits/(Pixel*Frame): 0.076
Stream size: 2.95 GiB (80%)
Writing library: x264 core 148 r2727 7d026e8
Encoding settings: cabac=1 / ref=3 / deblock=1:0:0 / analyse=0x1:0x111 / me=umh / subme=10 / psy=1 / psy_rd=1.00:0.00 / mixed_ref=1 / me_range=24 / chroma_me=1 / trellis=2 / 8x8dct=0 / cqm=0 / deadzone=21, 11 / fast_pskip=1 / chroma_qp_offset=-2 / threads=8 / lookahead_threads=1 / sliced_threads=0 / nr=0 / decimate=1 / interlaced=0 / bluray_compat=0 / stitchable=1 / constrained_intra=0 / bframes=2 / b_pyramid=0 / b_adapt=2 / b_bias=0 / direct=3 / weightb=1 / open_gop=0 / weightp=2 / keyint=250 / keyint_min=24 / scenecut=0 / intra_refresh=0 / rc_lookahead=48 / rc=2pass / mbtree=1 / bitrate=3804 / ratetol=1.0 / qcomp=0.50 / qpmin=6 / qpmax=51 / qpstep=4 / cplxblur=20.0 / qblur=0.5 / vbv_maxrate=7305 / vbv_bufsize=9740 / nal_hrd=vbr / filler=0 / ip_ratio=1.40 / aq=1:1.00
Language: English
Default: Yes
Forced: No

Audio #1
ID: 2
Format: AC-3
Format/Info: Audio Coding 3
Commercial name: Dolby Digital
Codec ID: A_AC3
Duration: 1 h 46 min
Bit rate mode: Constant
Bit rate: 192 kb/s
Channel(s): 2 channels
Channel layout: L R
Sampling rate: 48.0 kHz
Frame rate: 31.250 FPS (1536 SPF)
Compression mode: Lossy
Stream size: 146 MiB (4%)
Title: MVO - TVShows
Language: Russian
Service kind: Complete Main
Default: Yes
Forced: No

Audio #2
ID: 3
Format: E-AC-3 JOC
Format/Info: Enhanced AC-3 with Joint Object Coding
Commercial name: Dolby Digital Plus with Dolby Atmos
Codec ID: A_EAC3
Duration: 1 h 46 min
Bit rate mode: Constant
Bit rate: 768 kb/s
Channel(s): 6 channels
Channel layout: L R C LFE Ls Rs
Sampling rate: 48.0 kHz
Frame rate: 31.250 FPS (1536 SPF)
Compression mode: Lossy
Stream size: 585 MiB (16%)
Language: English
Service kind: Complete Main
Default: No
Forced: No
Complexity index: 16
Number of dynamic objects: 15
Bed channel count: 1 channel
Bed channel configuration: LFE

Text #1
ID: 4
Format: UTF-8
Codec ID: S_TEXT/UTF8
Codec ID/Info: UTF-8 Plain Text
Duration: 1 h 44 min
Bit rate: 65 b/s
Count of elements: 1309
Stream size: 49.8 KiB (0%)
Language: Russian
Default: No
Forced: No

Text #2
ID: 5
Format: UTF-8
Codec ID: S_TEXT/UTF8
Codec ID/Info: UTF-8 Plain Text
Duration: 1 h 44 min
Bit rate: 45 b/s
Count of elements: 1334
Stream size: 35.0 KiB (0%)
Language: English
Default: No
Forced: No

Text #3
ID: 6
Format: UTF-8
Codec ID: S_TEXT/UTF8
Codec ID/Info: UTF-8 Plain Text
Duration: 1 h 44 min
Bit rate: 75 b/s
Count of elements: 2059
Stream size: 57.6 KiB (0%)
Title: SDH
Language: English
Default: No
Forced: No




Скачать Уэнделл и Уайлд через торрент https://i120.fastpic.org/big/2022/1110/a7/726210da39b4d581e74b0b7bd4b61fa7.jpg Скачать, смотреть онлайн Уэнделл и Уайлд бесплантно в хорошем качестве Описание: Два брата-демона уже достаточно давненько по времени противостоят монахине, способной на профессиональном уровне изгонять всю ... 8.2 10 10
Торрент: Зарегистрирован [2022-11-10 07:50] · скачан: 189 раз
Статус: √ проверено
Размер: 3.67 GB
Как cкачать? Как скачать Уэнделл и Уайлд через торрент | UTorrent

28-11-2019 20:33  


Отключить вcю реклaмy на сайте, в т.ч. и в плеере онлайн просмотра!

10-11-2022 09:06 Уэнделл и Уайлд Скачать торрент  

Мульт про вонючих ниггеров?



10-11-2022 10:32 Уэнделл и Уайлд Скачать торрент  

Alex20112 писал(а):

Мульт про вонючих ниггеров?

сам себе и отвечу. ниггеры, индусы, азиаты, ниггеры. белых даже в куклы не ставят
N в нетфликс - значит Ниггер



10-11-2022 13:58 Уэнделл и Уайлд Скачать торрент  

Alex20112 писал(а):

Alex20112 писал(а):

Мульт про вонючих ниггеров?

сам себе и отвечу. ниггеры, индусы, азиаты, ниггеры. белых даже в куклы не ставят
N в нетфликс - значит Ниггер




11-11-2022 10:05 Уэнделл и Уайлд Скачать торрент  

Alex20112, ну да, сейчас белый гетеросексуальный мужчина имеет меньше всего прав )))



    Дорогой пользователь! Огромная просьба, поблагодарите релизера, оцените раздачу и оставьте свои комментарий, если Вы скачали Уэнделл и Уайлд через торрент бесплатно!!
    Комментировать посты могут только пользователи прошедшие не сложную регистрацию
    Показать сообщения:    


    Уэнделл и Уайлд через торрент
    Скачать бесплатно Уэнделл и Уайлд
    Уэнделл и Уайлд скачать торрент
    Уэнделл и Уайлд смотреть онлайн
    Cкачать фильм Уэнделл и Уайлд бесплатно
    Уэнделл и Уайлд скачать торрент в хорошем качестве
    Уэнделл и Уайлд смотреть онлайн бесплатно в хорошем качестве
    Вы не можете начинать темы
    Вы не можете отвечать на сообщения
    Вы не можете редактировать свои сообщения
    Вы не можете удалять свои сообщения
    Вы не можете голосовать в опросах
    Вы не можете прикреплять файлы к сообщениям
    Вы можете скачивать файлы
    Уэнделл и Уайлд / Wendell & Wild [2022, Мультфильм, фэнтези, комедия, приключения, семейный, WEB-DL 1080p] MVO [TVShows] смотреть онлайн, скачать торрент picoco.icu