Достать ножи: Стеклянная луковица

MVO

Добыча

Дубляж

Уэнсдэй

1 сезон

Тор

Дубляж

13 клиническая

1 сезон

Жестокая ночь

MVO

Одни из нас

1 сезон

Deluxe

pack

Рекомендуем

30

Пиратка

ВАЖНО

ВАЖНО

Ghostwire

Пиратка

jed

RePack

nioh2

RePack

RDR2

RePack

NEED FOR SPEED™ PAYBACK

RePack

скачать торрент

Кинопоиск HD

Острые козырьки 6 сезон

6 сезон

FAR CRY 6

RePack

скачать торрент

Лицензия

скачать торрент

MVO

1

1 сезон

скачать торрент

1 сезон

скачать торрент

Лицензия

  

Проклятие мачехи / Homebound (Себастьян Годвин) [2021 г., ужасы, драма, детектив, WEB-DLRip, Дубляж "Paragraph Media"]

Проклятие мачехи через торрент pb.wtf

Раздают: 1 [ 0 KB/s ]
Размер: 715 MB | Добавлен: 2 мес. 27 д. назад | Торрент скачан:19 раз
Смотреть онлайн | Скачать | Поддержите нас   

10-11-2022 17:38 Проклятие мачехи Скачать торрент  

Проклятие мачехи / Homebound
Год выпуска: 2021
Страна: Великобритания / BFI Film Fund, East Green Films, Microwave
Жанр: ужасы, драма, детектив
Продолжительность: 01:35:57
Перевод: Дубляж (Paragraph Media)

Режиссер: Себастьян Годвин

rating

В ролях: Раффиелла Чепмен, Эшлин Лофтус, Том Гудман-Хилл, Хэтти Готобед, Лукас Рольф

Описание: Знакомство Холли с детьми мужа от первого брака оборачивается настоящим кошмаром. Не рады появлению в доме мачехи не только дети, но и потусторонние силы, словно пытающиеся сообщить Холли нечто важное и жуткое.

Качество: WEB-DLRip
Формат: AVI
Видео кодек: DivX
Аудио кодек: MP3
Видео: MPEG4, DivX 4, 640x272 (2.35:1), 23.976 fps, 905 kb/s (0.217 bit/pixel)
Аудио: MP3, 48.0 kHz, 2 ch, 128 kb/s, CBR

General
Complete name : G:\ФИЛЬМЫ\Проклятие мачехи.2021.D.WEB-DLRip.avi
Format : AVI
Format/Info : Audio Video Interleave
File size : 715 MiB
Duration : 1 h 35 min
Overall bit rate : 1 042 kb/s
Writing application : VirtualDubMod 1.5.10.3 | www.virtualdub-fr.org || (build 2550/release)
Writing library : VirtualDubMod build 2550/release

Video
ID : 0
Format : MPEG-4 Visual
Format profile : Advanced [email protected]
Format settings : BVOP2
Format settings, BVOP : 2
Format settings, QPel : No
Format settings, GMC : No warppoints
Format settings, Matrix : Default (MPEG)
Codec ID : DIVX
Codec ID/Info : Project Mayo
Codec ID/Hint : DivX 4
Duration : 1 h 35 min
Bit rate : 905 kb/s
Width : 640 pixels
Height : 272 pixels
Display aspect ratio : 2.35:1
Frame rate : 23.976 (24000/1001) FPS
Color space : YUV
Chroma subsampling : 4:2:0
Bit depth : 8 bits
Scan type : Progressive
Compression mode : Lossy
Bits/(Pixel*Frame) : 0.217
Stream size : 621 MiB (87%)
Writing library : XviD 1.2.1 (UTC 2008-12-04)

Audio
ID : 1
Format : MPEG Audio
Format version : Version 1
Format profile : Layer 3
Format settings : Joint stereo
Codec ID : 55
Codec ID/Hint : MP3
Duration : 1 h 35 min
Bit rate mode : Constant
Bit rate : 128 kb/s
Channel(s) : 2 channels
Sampling rate : 48.0 kHz
Frame rate : 41.667 FPS (1152 SPF)
Compression mode : Lossy
Stream size : 87.9 MiB (12%)
Alignment : Aligned on interleaves
Interleave, duration : 42 ms (1.00 video frame)
Interleave, preload duration : 504 ms
Writing library : LAME3.99r
Encoding settings : -m j -V 4 -q 2 -lowpass 17 -b 128




Скачать Проклятие мачехи через торрент https://i120.fastpic.org/big/2022/1110/71/0309c4d45ccc15ed26810893eca37f71.jpg Скачать, смотреть онлайн Проклятие мачехи бесплантно в хорошем качестве Описание: Знакомство Холли с детьми мужа от первого брака оборачивается настоящим кошмаром. Не рады появлению в доме мачехи не только дети, ... 10 10 1
Торрент: Зарегистрирован [2022-11-10 17:38] · скачан: 19 раз
Статус: √ проверено
Размер: 715 MB
Как cкачать? Как скачать Проклятие мачехи через торрент | UTorrent

28-11-2019 20:33  


Отключить вcю реклaмy на сайте, в т.ч. и в плеере онлайн просмотра!

28-11-2022 08:44 Проклятие мачехи Скачать торрент  

Совершенно другой фильм, не соответствующий описанию.
Смотреть, кстати, его не нужно. Нудятина



    Дорогой пользователь! Огромная просьба, поблагодарите релизера, оцените раздачу и оставьте свои комментарий, если Вы скачали Проклятие мачехи через торрент бесплатно!!
    Комментировать посты могут только пользователи прошедшие не сложную регистрацию
    Показать сообщения:    


    Проклятие мачехи через торрент
    Скачать бесплатно Проклятие мачехи
    Проклятие мачехи скачать торрент
    Проклятие мачехи смотреть онлайн
    Cкачать фильм Проклятие мачехи бесплатно
    Проклятие мачехи скачать торрент в хорошем качестве
    Проклятие мачехи смотреть онлайн бесплатно в хорошем качестве
    Вы не можете начинать темы
    Вы не можете отвечать на сообщения
    Вы не можете редактировать свои сообщения
    Вы не можете удалять свои сообщения
    Вы не можете голосовать в опросах
    Вы не можете прикреплять файлы к сообщениям
    Вы можете скачивать файлы
    Проклятие мачехи / Homebound [2021 г., ужасы, драма, детектив, WEB-DLRip, Дубляж "Paragraph Media"] смотреть онлайн, скачать торрент picoco.icu