Аватар: Путь воды

Лицензия

Сансара

1 сезон

скачать смотреть онлайн John Wick Chapter 4

MVO

Крик 6

Дубляж

13 клиническая

3 сезон

Восстание зловещих мертвецов

Дубляж

Одни из нас

Дубляж

Dead Island 2 Gold

Gold

Deluxe

Deluxe

pack

Рекомендуем

ВАЖНО

ВАЖНО

30

Repack

The Lord of the Rings: Gollum

Лицензия

jed

RePack

nioh2

RePack

RDR2

RePack

NEED FOR SPEED™ PAYBACK

RePack

скачать торрент

Кинопоиск HD

Острые козырьки 6 сезон

6 сезон

FAR CRY 6

RePack

скачать торрент

Лицензия

скачать торрент

MVO

1

1 сезон

скачать торрент

1 сезон

скачать торрент

Лицензия

  

Апачи-Джанкшен / Apache Junction (Джастин Ли) [2021, Вестерн, BDRip 720p] Дубляж [Мосфильм-Мастер]

Апачи-Джанкшен через торрент pb.wtf

Размер: 5.31 GB | Добавлен: 6 мес. назад | Торрент скачан:53 раза
Смотреть онлайн | Скачать | Поддержите нас   

10-11-2022 18:54 Апачи-Джанкшен Скачать торрент  

Апачи-Джанкшен
Apache Junction

Год выпуска: 2021
Страна: США, Таиланд
Выпущено: Hillin Entertainment, Benetone Films, Origo Financial Services
Жанр: Вестерн
Продолжительность: 01:34:41
Перевод: Дублированный | Мосфильм-Мастер
Субтитры: Aнглийские

Режиссер: Джастин Ли

rating

В ролях: Стюарт Таунсенд, Томас Джейн, Скаут Тейлор-Комптон, Виктория Прэтт, Трэйси Эдкинс, Фил Бёрк, Даниэль Гросс, Лорена Саррия, Эдвард Финлэй, Рики Ли

Описание: Журналистка Аннабель приезжает в Апачи-Джанкшен, пристанище воров и хладнокровных убийц, чтобы написать статью о городе. Вскоре девушка сама становится мишенью, и ей на помощь приходит известный стрелок.

Качество: BDRip 720p
Формат: MKV

Видео: MPEG-4 AVC, 7000 Kb/s, 1280x544, 23.976 fps
Аудио #01: 48 kHz, AC3, 5.1, 384 Kbps | Дублированный | Мосфильм-Мастер | RUS |
Аудио #02: 48 kHz, AC3, 5.1, 640 Kbps | Оригинал | ENG |
скриншот  скриншот  скриншот  скриншот  

Complete name: Apache.Junction.2021.BDRip.720p.ELEKTRI4KA.UNIONGANG.mkv
Format: Matroska
Format version: Version 4
File size: 5.31 GiB
Duration: 1 h 34 min
Overall bit rate: 8 024 kb/s
Movie name: Apache.Junction.2021.BDRip.720p.ELEKTRI4KA.UNIONGANG.
Encoded date: UTC 2022-11-10 16:11:33
Writing application: mkvmerge v8.3.0 ('Over the Horizon') 32bit
Writing library: libebml v1.3.1 + libmatroska v1.4.2

Video
ID: 1
Format: AVC
Format/Info: Advanced Video Codec
Format profile: [email protected]
Format settings: CABAC / 12 Ref Frames
Format settings, CABAC: Yes
Format settings, Reference frames: 12 frames
Codec ID: V_MPEG4/ISO/AVC
Duration: 1 h 34 min
Bit rate: 7 000 kb/s
Width: 1 280 pixels
Height: 544 pixels
Display aspect ratio: 2.35:1
Frame rate mode: Constant
Frame rate: 23.976 (24000/1001) FPS
Color space: YUV
Chroma subsampling: 4:2:0
Bit depth: 8 bits
Scan type: Progressive
Bits/(Pixel*Frame): 0.419
Stream size: 4.63 GiB (87%)
Writing library: x264 core 157 r2958 57baac4
Encoding settings: cabac=1 / ref=12 / deblock=1:-3:-3 / analyse=0x3:0x133 / me=umh / subme=10 / psy=1 / psy_rd=1.00:0.00 / mixed_ref=1 / me_range=32 / chroma_me=1 / trellis=2 / 8x8dct=1 / cqm=0 / deadzone=21, 11 / fast_pskip=0 / chroma_qp_offset=-2 / threads=49 / lookahead_threads=4 / sliced_threads=0 / nr=0 / decimate=0 / interlaced=0 / bluray_compat=0 / constrained_intra=0 / bframes=8 / b_pyramid=2 / b_adapt=2 / b_bias=0 / direct=3 / weightb=1 / open_gop=0 / weightp=2 / keyint=240 / keyint_min=24 / scenecut=40 / intra_refresh=0 / rc=2pass / mbtree=0 / bitrate=7000 / ratetol=1.0 / qcomp=0.60 / qpmin=0 / qpmax=69 / qpstep=4 / cplxblur=20.0 / qblur=0.5 / ip_ratio=1.40 / pb_ratio=1.30 / aq=1:1.00
Language: English
Default: Yes
Forced: No

Audio #1
ID: 2
Format: AC-3
Format/Info: Audio Coding 3
Commercial name: Dolby Digital
Codec ID: A_AC3
Duration: 1 h 34 min
Bit rate mode: Constant
Bit rate: 384 kb/s
Channel(s): 6 channels
Channel layout: L R C LFE Ls Rs
Sampling rate: 48.0 kHz
Frame rate: 31.250 FPS (1536 SPF)
Compression mode: Lossy
Stream size: 260 MiB (5%)
Title: Дубляж (Mosfilm-Master)
Language: Russian
Service kind: Complete Main
Default: Yes
Forced: Yes

Audio #2
ID: 3
Format: AC-3
Format/Info: Audio Coding 3
Commercial name: Dolby Digital
Codec ID: A_AC3
Duration: 1 h 34 min
Bit rate mode: Constant
Bit rate: 640 kb/s
Channel(s): 6 channels
Channel layout: L R C LFE Ls Rs
Sampling rate: 48.0 kHz
Frame rate: 31.250 FPS (1536 SPF)
Compression mode: Lossy
Stream size: 433 MiB (8%)
Title: Original
Language: English
Service kind: Complete Main
Default: No
Forced: No

Text #1
ID: 4
Format: UTF-8
Codec ID: S_TEXT/UTF8
Codec ID/Info: UTF-8 Plain Text
Duration: 1 h 28 min
Bit rate: 52 b/s
Count of elements: 975
Stream size: 34.2 KiB (0%)
Language: English
Default: No
Forced: No

Text #2
ID: 5
Format: UTF-8
Codec ID: S_TEXT/UTF8
Codec ID/Info: UTF-8 Plain Text
Duration: 1 h 29 min
Bit rate: 55 b/s
Count of elements: 1059
Stream size: 35.9 KiB (0%)
Language: English
Default: No
Forced: No

Menu
00:00:00.000: en:Chapter 01
00:14:16.605: en:Chapter 02
00:20:15.756: en:Chapter 03
00:28:51.646: en:Chapter 04
00:33:44.981: en:Chapter 05
00:44:28.791: en:Chapter 06
00:53:03.930: en:Chapter 07
01:02:39.881: en:Chapter 08
01:10:10.539: en:Chapter 09
01:30:24.335: en:Chapter 10





Скачать Апачи-Джанкшен через торрент https://i120.fastpic.org/big/2022/1110/49/7fd06d7076d9625faa316dfacdd7cf49.jpg Скачать, смотреть онлайн Апачи-Джанкшен бесплатно в хорошем качестве Описание: Журналистка Аннабель приезжает в Апачи-Джанкшен, пристанище воров и хладнокровных убийц, чтобы написать статью о городе. Вскоре ... 10 10 3
Торрент: Зарегистрирован [2022-11-10 18:54] · скачан: 53 раз
Статус: √ проверено
Размер: 5.31 GB
Как cкачать? Как скачать Апачи-Джанкшен через торрент | UTorrent

% Раздел Тема Автор DL S | L
Фильмы 2021 [DVDrip, WEB-DLRip, HDrip] (DUB, MVO) [ 1.46 GB ] Апачи-Джанкшен / Apache Junction | Мосфильм-Мастер | BDRip bober100 Скачать
2 | 0
Фильмы (Blu-ray, BD-Remux, HDDVD) [ 21.26 GB ] Апачи-Джанкшен / Apache Junction | Мосфильм-Мастер | BD Remux 1080p bober100 Скачать
1 | 0
Фильмы [HD 720p, 1080p] (Хороший звук DUB, MVO) [ 14.25 GB ] Апачи-Джанкшен / Apache Junction | Мосфильм-Мастер | 1080p bober100 Скачать
1 | 0

28-11-2019 20:33  


Отключить вcю реклaмy на сайте, в т.ч. и в плеере онлайн просмотра!

    Дорогой пользователь! Огромная просьба, поблагодарите релизера, оцените раздачу и оставьте свои комментарий, если Вы скачали Апачи-Джанкшен через торрент бесплатно!!
    Комментировать посты могут только пользователи прошедшие не сложную регистрацию
    Показать сообщения:    


    Апачи-Джанкшен через торрент
    Скачать бесплатно Апачи-Джанкшен
    Апачи-Джанкшен скачать торрент
    Апачи-Джанкшен смотреть онлайн
    Cкачать фильм Апачи-Джанкшен бесплатно
    Апачи-Джанкшен скачать торрент в хорошем качестве
    Апачи-Джанкшен смотреть онлайн бесплатно в хорошем качестве
    Вы не можете начинать темы
    Вы не можете отвечать на сообщения
    Вы не можете редактировать свои сообщения
    Вы не можете удалять свои сообщения
    Вы не можете голосовать в опросах
    Вы не можете прикреплять файлы к сообщениям
    Вы можете скачивать файлы