Достать ножи: Стеклянная луковица

MVO

Добыча

Дубляж

Уэнсдэй

1 сезон

Тор

Дубляж

13 клиническая

1 сезон

Жестокая ночь

MVO

Одни из нас

1 сезон

Deluxe

pack

Рекомендуем

30

Пиратка

ВАЖНО

ВАЖНО

Ghostwire

Пиратка

jed

RePack

nioh2

RePack

RDR2

RePack

NEED FOR SPEED™ PAYBACK

RePack

скачать торрент

Кинопоиск HD

Острые козырьки 6 сезон

6 сезон

FAR CRY 6

RePack

скачать торрент

Лицензия

скачать торрент

MVO

1

1 сезон

скачать торрент

1 сезон

скачать торрент

Лицензия

  

Жестокие игры / Cruel Intentions (Роджер Камбл) [1999, Триллер, драма, мелодрама, BDRip - HEVC 1080p 10 bit 60 FPS, MVO]

Жестокие игры через торрент pb.wtf

Раздают: 1 [ 0 KB/s ]
Размер: 2.75 GB | Добавлен: 2 мес. 23 д. назад | Торрент скачан:66 раз
Смотреть онлайн | Скачать | Поддержите нас   

11-11-2022 09:13 Жестокие игры Скачать торрент  

Cruel Intentions
«Everyone does it, no one talks about it»
Информация о фильме:
Название: Жестокие игры
Оригинальное название: Cruel Intentions
Год выхода: 1999
Жанр: Триллер, драма, мелодрама
Режиссер: Роджер Камбл
В ролях: Сара Мишель Геллар, Райан Филипп, Риз Уизерспун, Сэльма Блэр, Луиза Флетчер, Джошуа Джексон, Эрик Мэбиас, Шон Патрик Томас, Свузи Кёрц, Кристин Барански, Алайна Рид Холл, Дебора Оффнер, Тара Рид, Херта Уэр, Хьеп Тхи Ле, Чарли О’Коннелл, Фред Норрис, Джинджер Уильямс, Дрю Снайдер
Описание: Себастьян знает сладкий привкус легких побед. В его руках — чужие тайны и ключи от неприступных спален. Катрин устала от простых интриг и банальных признаний. Тогда современный Казанова и скучающая красавица придумывают себе новое развлечение. В их жестокой игре не хватает только жертвы…


Страна: США
Студия: Columbia Pictures Corporation, Cruel Productions LLC, Newmarket Capital Group LLC, Original Film
Продолжительность: 01:37:28
Перевод: Профессиональный (многоголосый, закадровый) | Видеосервис
Субтитры: русские |
Навигация по главам: есть
Информация о файле:
Качество: BDRip - HEVC 1080p Rip by DD2D3
Формат: MKV
Видео: V_MPEGH/ISO/HEVC; 1920x1040 (1.85:1); 3579 Kbps; 60 fps; 0,030 bpp
Аудио:
русский; AC3; 384 Kbps; CBR; 6 ch ||

Доп. информация: нет

Общее
Уникальный идентификатор : 237309490632847034618540127901523383158 (0xB2882539921564AA92EA31458F3C1376)
Полное имя : E:\Cruel Intentions (1999) BDRip - HEVC 1080p 10 bit 60 FPS.mkv
Формат : Matroska
Версия формата : Version 2
Размер файла : 2,75 Гбайт
Продолжительность : 1 ч. 37 м.
Общий поток : 4 044 Кбит/сек
Название фильма : Rip by from DD2D3
Дата кодирования : UTC 2022-11-11 07:56:53
Программа кодирования : mkvmerge v7.8.0 ('River Man') 32bit built on Apr 3 2015 12:11:22
Библиотека кодирования : libebml v1.3.1 + libmatroska v1.4.2
Attachments : poster

Видео
Идентификатор : 1
Формат : HEVC
Формат/Информация : High Efficiency Video Coding
Профиль формата : Main [email protected]@Main
Идентификатор кодека : V_MPEGH/ISO/HEVC
Продолжительность : 1 ч. 37 м.
Битрейт : 3 580 Кбит/сек
Ширина : 1 920 пикселей
Высота : 1 040 пикселей
Соотношение сторон : 1,85:1
Режим частоты кадров : Постоянный
Частота кадров : 60,000 кадров/сек
Цветовое пространство : YUV
Субдискретизация насыщенности : 4:2:0
Битовая глубина : 10 бит
Бит/(Пиксели*Кадры) : 0.030
Размер потока : 2,44 Гбайт (89%)
Библиотека кодирования : x265 3.5+20-17839cc0d:[Windows][GCC 11.2.0][64 bit] 10bit
Настройки программы : cpuid=1111039 / frame-threads=2 / numa-pools=4 / wpp / no-pmode / no-pme / no-psnr / no-ssim / log-level=2 / input-csp=1 / input-res=1920x1040 / interlace=0 / total-frames=350917 / level-idc=41 / high-tier=1 / uhd-bd=0 / ref=3 / no-allow-non-conformance / no-repeat-headers / annexb / no-aud / no-eob / no-eos / no-hrd / info / hash=0 / no-temporal-layers / open-gop / min-keyint=5 / keyint=240 / gop-lookahead=0 / bframes=4 / b-adapt=2 / b-pyramid / bframe-bias=0 / rc-lookahead=20 / lookahead-slices=6 / scenecut=40 / no-hist-scenecut / radl=0 / no-splice / no-intra-refresh / ctu=64 / min-cu-size=8 / no-rect / no-amp / max-tu-size=8 / tu-inter-depth=1 / tu-intra-depth=1 / limit-tu=0 / rdoq-level=0 / dynamic-rd=0.00 / no-ssim-rd / signhide / no-tskip / nr-intra=0 / nr-inter=0 / no-constrained-intra / strong-intra-smoothing / max-merge=3 / limit-refs=1 / no-limit-modes / me=1 / subme=4 / merange=57 / temporal-mvp / no-frame-dup / no-hme / weightp / no-weightb / no-analyze-src-pics / deblock=0:0 / sao / no-sao-non-deblock / rd=3 / selective-sao=4 / early-skip / rskip / no-fast-intra / no-tskip-fast / no-cu-lossless / b-intra / no-splitrd-skip / rdpenalty=0 / psy-rd=2.00 / psy-rdoq=0.00 / no-rd-refine / no-lossless / cbqpoffs=-2 / crqpoffs=-2 / rc=abr / bitrate=3650 / qcomp=0.70 / qpstep=4 / stats-write=0 / stats-read=0 / ipratio=1.38 / pbratio=1.28 / aq-mode=2 / aq-strength=1.00 / cutree / zone-count=0 / no-strict-cbr / qg-size=32 / no-rc-grain / qpmax=69 / qpmin=0 / no-const-vbv / sar=1 / overscan=0 / videoformat=5 / range=0 / colorprim=1 / transfer=1 / colormatrix=1 / chromaloc=0 / display-window=0 / cll=0,0 / min-luma=0 / max-luma=1023 / log2-max-poc-lsb=8 / vui-timing-info / vui-hrd-info / slices=1 / no-opt-qp-pps / no-opt-ref-list-length-pps / no-multi-pass-opt-rps / scenecut-bias=0.05 / hist-threshold=0.03 / no-opt-cu-delta-qp / no-aq-motion / no-hdr10 / no-hdr10-opt / no-dhdr10-opt / no-idr-recovery-sei / analysis-reuse-level=0 / analysis-save-reuse-level=0 / analysis-load-reuse-level=0 / scale-factor=0 / refine-intra=0 / refine-inter=0 / refine-mv=1 / refine-ctu-distortion=0 / no-limit-sao / ctu-info=0 / no-lowpass-dct / refine-analysis-type=0 / copy-pic=1 / max-ausize-factor=1.0 / no-dynamic-refine / no-single-sei / no-hevc-aq / no-svt / no-field / qp-adaptation-range=1.00 / scenecut-aware-qp=0conformance-window-offsets / right=0 / bottom=0 / decoder-max-rate=0 / no-vbv-live-multi-pass
Default : Да
Forced : Нет
Цветовой диапазон : Limited
Основные цвета : BT.709
Характеристики трансфера : BT.709
Коэффициенты матрицы : BT.709

Аудио
Идентификатор : 2
Формат : AC-3
Формат/Информация : Audio Coding 3
Коммерческое название : Dolby Digital
Идентификатор кодека : A_AC3
Продолжительность : 1 ч. 37 м.
Вид битрейта : Постоянный
Битрейт : 384 Кбит/сек
Каналы : 6 каналов
Channel layout : L R C LFE Ls Rs
Частота : 48,0 КГц
Частота кадров : 31,250 кадров/сек (1536 SPF)
Метод сжатия : С потерями
Размер потока : 268 Мбайт (9%)
Заголовок : MVO - Видеосервис
Язык : Russian
Service kind : Complete Main
Default : Да
Forced : Нет

Текст
Идентификатор : 3
Формат : UTF-8
Идентификатор кодека : S_TEXT/UTF8
Идентификатор кодека/Информация : UTF-8 Plain Text
Язык : Russian
Default : Да
Forced : Нет

Меню
00:00:00.000 : en:00:00:00.000
00:07:36.706 : en:00:07:36.706
00:14:21.861 : en:00:14:21.861
00:18:29.400 : en:00:18:29.400
00:22:33.519 : en:00:22:33.519
00:30:44.885 : en:00:30:44.885
00:34:13.093 : en:00:34:13.093
00:41:28.027 : en:00:41:28.027
00:49:54.241 : en:00:49:54.241
00:53:03.806 : en:00:53:03.806
00:58:58.535 : en:00:58:58.535
01:05:37.559 : en:01:05:37.559
01:11:13.895 : en:01:11:13.895
01:17:36.235 : en:01:17:36.235
01:23:01.602 : en:01:23:01.602
01:25:50.729 : en:01:25:50.729




Скачать Жестокие игры через торрент https://st-kp-yandex-net.translate.goog/images/film_iphone/iphone360_12192.jpg Скачать, смотреть онлайн Жестокие игры бесплантно в хорошем качестве Описание: Себастьян знает сладкий привкус легких побед. В его руках — чужие тайны и ключи от неприступных спален. Катрин устала от простых ... 10 10 2
Info! Золотая раздача, скачанное не засчитывается.
Торрент: Зарегистрирован [2022-11-11 09:13] · скачан: 66 раз
Статус: √ проверено
Размер: 2.75 GB
Как cкачать? Как скачать Жестокие игры через торрент | UTorrent

% Раздел Тема Автор DL S | L
Фильмы до 2000 г. [ 2.37 GB ] Жестокие игры / Cruel Intentions | MVO+AVO | BDRip-AVC bober100 Скачать
2 | 0
Фильмы до 2000 г. [ 658 MB ] Жестокие игры 2: Манчестерская подготовка / Cruel Intentions 2 | | DVDRip,Профессиональный (двухголосый gunk Скачать
1 | 0
Фильмы [HD 720p, 1080p] (Хороший звук DUB, MVO) [ 7.95 GB ] Жестокие игры / Cruel Intentions | MVO + AVO + Original | 1080p, 2хMVO + AVO + Original -Lexx- Скачать
1 | 0
Фильмы до 2000 г. [ 1.46 GB ] Жестокие игры / Cruel Intentions | MVO | BDRip, MVO AARRSSEENN Скачать
1 | 0
Фильмы до 2000 г. [ 1.38 GB ] Жестокие игры / Cruel Intentions | | HDRip кэп Скачать
1 | 0
Фильмы до 2000 г. [ 674 MB ] Жестокие игры / Cruel Intentions | | DVDRip Светлана999999 Скачать
1 | 0

28-11-2019 20:33  


Отключить вcю реклaмy на сайте, в т.ч. и в плеере онлайн просмотра!

11-11-2022 13:31 Жестокие игры Скачать торрент  

Пишет что некорректный торрент файл.



11-11-2022 14:29 Жестокие игры Скачать торрент  

gsm-1900 писал(а):

Пишет что некорректный торрент файл.

посмотри версию торрента своего, у меня qBittorrent 4.4.3.1



15-11-2022 20:23 Жестокие игры Скачать торрент  


Большое Спасибо dd2d3!!!
Как всегда помогу с раздачей!
Спасибо Друг, что ты есть!
Best Regards, Your V&S!



    Дорогой пользователь! Огромная просьба, поблагодарите релизера, оцените раздачу и оставьте свои комментарий, если Вы скачали Жестокие игры через торрент бесплатно!!
    Комментировать посты могут только пользователи прошедшие не сложную регистрацию
    Показать сообщения:    


    Жестокие игры через торрент
    Скачать бесплатно Жестокие игры
    Жестокие игры скачать торрент
    Жестокие игры смотреть онлайн
    Cкачать фильм Жестокие игры бесплатно
    Жестокие игры скачать торрент в хорошем качестве
    Жестокие игры смотреть онлайн бесплатно в хорошем качестве
    Вы не можете начинать темы
    Вы не можете отвечать на сообщения
    Вы не можете редактировать свои сообщения
    Вы не можете удалять свои сообщения
    Вы не можете голосовать в опросах
    Вы не можете прикреплять файлы к сообщениям
    Вы можете скачивать файлы
    Жестокие игры / Cruel Intentions [1999, Триллер, драма, мелодрама, BDRip - HEVC 1080p 10 bit 60 FPS, MVO] смотреть онлайн, скачать торрент picoco.icu