Достать ножи: Стеклянная луковица

MVO

Добыча

Дубляж

Уэнсдэй

1 сезон

Тор

Дубляж

13 клиническая

1 сезон

Жестокая ночь

MVO

Одни из нас

1 сезон

Deluxe

pack

Рекомендуем

30

Пиратка

ВАЖНО

ВАЖНО

Ghostwire

Пиратка

jed

RePack

nioh2

RePack

RDR2

RePack

NEED FOR SPEED™ PAYBACK

RePack

скачать торрент

Кинопоиск HD

Острые козырьки 6 сезон

6 сезон

FAR CRY 6

RePack

скачать торрент

Лицензия

скачать торрент

MVO

1

1 сезон

скачать торрент

1 сезон

скачать торрент

Лицензия

  

Ложное искушение / The Good Shepherd (Роберт Де Ниро) [2006 г.,триллер, мелодрама, драма, WEB-DLRip - HEVC 1080p 10 bit 60 FPS, AVO]

Ложное искушение через торрент pb.wtf

Размер: 4.99 GB | Добавлен: 2 мес. 24 д. назад | Торрент скачан:70 раз
Смотреть онлайн | Скачать | Поддержите нас   

12-11-2022 19:38 Ложное искушение Скачать торрент  

The Good Shepherd
«Все грязные секреты начинаются здесь...»
Информация о фильме:
Название: Ложное Искушение
Оригинальное название: The Good Shepherd
Год выхода: 2006
Жанр: триллер, драма, история
Режиссер: Роберт Де Ниро
В ролях: Мэтт Дэймон, Анджелина Джоли, Алек Болдуин, Роберт Де Ниро, Тэмми Блэнчард, Билли Крадап, Кир Далли, Майкл Гэмбон, Мартина Гедек, Уильям Херт, Тимоти Хаттон, Марк Иванир, Гэбриэл Махт, Ли Пэйс, Джо Пеши, Эдди Редмэйн, Джон Сешнз, Олег Стефан, Джон Туртурро
Описание: Целеустремленный молодой идеалист Эдвард Уилсон поступает на службу в OSS. Это решение меняет не только его жизнь, но и мировую историю. Уилсон создает ЦРУ.


Страна: США
Студия: Universal Pictures, Morgan Creek, American Zoetrope, Tribeca Productions
Продолжительность: 02:47:26
Перевод: AVO | Немахов
Субтитры: русские |
Навигация по главам: нет
Информация о файле:
Качество: WEB-DLRip - HEVC 1080p Rip by DD2D3
Формат: MKV
Видео: V_MPEGH/ISO/HEVC; 1920x1080 (16:9); 3537 Kbps; 60 fps; 0,028 bpp
Аудио: русский; AC3; 640 Kbps; CBR; 6 ch ||
Доп. информация: Open Matte

Общее
Уникальный идентификатор : 207568323573360919605811726730815857456 (0x9C28347A1191BD5F8B816E3A6CABE330)
Полное имя : E:\The Good Shepherd (2006) [Open Matte] WEB-DLRip - HEVC 1080p 10 bit 60 FPS.mkv
Формат : Matroska
Версия формата : Version 2
Размер файла : 4,99 Гбайт
Продолжительность : 2 ч. 47 м.
Общий поток : 4 263 Кбит/сек
Название фильма : Rip by from DD2D3
Дата кодирования : UTC 2022-11-12 18:13:01
Программа кодирования : mkvmerge v7.8.0 ('River Man') 32bit built on Apr 3 2015 12:11:22
Библиотека кодирования : libebml v1.3.1 + libmatroska v1.4.2
Attachments : poster

Видео
Идентификатор : 1
Формат : HEVC
Формат/Информация : High Efficiency Video Coding
Профиль формата : Main [email protected]@Main
Идентификатор кодека : V_MPEGH/ISO/HEVC
Продолжительность : 2 ч. 47 м.
Битрейт : 3 538 Кбит/сек
Ширина : 1 920 пикселей
Высота : 1 080 пикселей
Соотношение сторон : 16:9
Режим частоты кадров : Постоянный
Частота кадров : 60,000 кадров/сек
Цветовое пространство : YUV
Субдискретизация насыщенности : 4:2:0
Битовая глубина : 10 бит
Бит/(Пиксели*Кадры) : 0.028
Размер потока : 4,14 Гбайт (83%)
Библиотека кодирования : x265 3.5+20-17839cc0d:[Windows][GCC 11.2.0][64 bit] 10bit
Настройки программы : cpuid=1111039 / frame-threads=2 / numa-pools=4 / wpp / no-pmode / no-pme / no-psnr / no-ssim / log-level=2 / input-csp=1 / input-res=1920x1080 / interlace=0 / total-frames=602418 / level-idc=41 / high-tier=1 / uhd-bd=0 / ref=3 / no-allow-non-conformance / no-repeat-headers / annexb / no-aud / no-eob / no-eos / no-hrd / info / hash=0 / no-temporal-layers / open-gop / min-keyint=5 / keyint=240 / gop-lookahead=0 / bframes=4 / b-adapt=2 / b-pyramid / bframe-bias=0 / rc-lookahead=20 / lookahead-slices=6 / scenecut=40 / no-hist-scenecut / radl=0 / no-splice / no-intra-refresh / ctu=64 / min-cu-size=8 / no-rect / no-amp / max-tu-size=8 / tu-inter-depth=1 / tu-intra-depth=1 / limit-tu=0 / rdoq-level=0 / dynamic-rd=0.00 / no-ssim-rd / signhide / no-tskip / nr-intra=0 / nr-inter=0 / no-constrained-intra / strong-intra-smoothing / max-merge=3 / limit-refs=1 / no-limit-modes / me=1 / subme=5 / merange=57 / temporal-mvp / no-frame-dup / no-hme / weightp / no-weightb / no-analyze-src-pics / deblock=0:0 / sao / no-sao-non-deblock / rd=3 / selective-sao=4 / early-skip / rskip / no-fast-intra / no-tskip-fast / no-cu-lossless / b-intra / no-splitrd-skip / rdpenalty=0 / psy-rd=2.00 / psy-rdoq=0.00 / no-rd-refine / no-lossless / cbqpoffs=-2 / crqpoffs=-2 / rc=abr / bitrate=3650 / qcomp=0.70 / qpstep=4 / stats-write=0 / stats-read=0 / ipratio=1.38 / pbratio=1.28 / aq-mode=2 / aq-strength=1.00 / cutree / zone-count=0 / no-strict-cbr / qg-size=32 / no-rc-grain / qpmax=69 / qpmin=0 / no-const-vbv / sar=1 / overscan=0 / videoformat=5 / range=0 / colorprim=1 / transfer=1 / colormatrix=1 / chromaloc=0 / display-window=0 / cll=0,0 / min-luma=0 / max-luma=1023 / log2-max-poc-lsb=8 / vui-timing-info / vui-hrd-info / slices=1 / no-opt-qp-pps / no-opt-ref-list-length-pps / no-multi-pass-opt-rps / scenecut-bias=0.05 / hist-threshold=0.03 / no-opt-cu-delta-qp / no-aq-motion / no-hdr10 / no-hdr10-opt / no-dhdr10-opt / no-idr-recovery-sei / analysis-reuse-level=0 / analysis-save-reuse-level=0 / analysis-load-reuse-level=0 / scale-factor=0 / refine-intra=0 / refine-inter=0 / refine-mv=1 / refine-ctu-distortion=0 / no-limit-sao / ctu-info=0 / no-lowpass-dct / refine-analysis-type=0 / copy-pic=1 / max-ausize-factor=1.0 / no-dynamic-refine / no-single-sei / no-hevc-aq / no-svt / no-field / qp-adaptation-range=1.00 / scenecut-aware-qp=0conformance-window-offsets / right=0 / bottom=0 / decoder-max-rate=0 / no-vbv-live-multi-pass
Default : Да
Forced : Нет
Цветовой диапазон : Limited
Основные цвета : BT.709
Характеристики трансфера : BT.709
Коэффициенты матрицы : BT.709

Аудио
Идентификатор : 2
Формат : AC-3
Формат/Информация : Audio Coding 3
Коммерческое название : Dolby Digital
Идентификатор кодека : A_AC3
Продолжительность : 2 ч. 47 м.
Вид битрейта : Постоянный
Битрейт : 640 Кбит/сек
Каналы : 6 каналов
Channel layout : L R C LFE Ls Rs
Частота : 48,0 КГц
Частота кадров : 31,250 кадров/сек (1536 SPF)
Метод сжатия : С потерями
Размер потока : 767 Мбайт (15%)
Заголовок : AVO Немахов
Язык : Russian
Service kind : Complete Main
Default : Нет
Forced : Нет
Statistics Tags Issue : mkvmerge v8.3.0 ('Over the Horizon') 32bit 2020-05-23 15:30:10 / mkvmerge v7.8.0 ('River Man') 32bit built on Apr 3 2015 12:11:22 2022-11-12 18:13:01
FromStats_BitRate : 640000
FromStats_Duration : 02:47:26.816000000
FromStats_FrameCount : 313963
FromStats_StreamSize : 803745280

Текст
Идентификатор : 3
Формат : UTF-8
Идентификатор кодека : S_TEXT/UTF8
Идентификатор кодека/Информация : UTF-8 Plain Text
Язык : Russian
Default : Нет
Forced : Нет
Statistics Tags Issue : mkvmerge v8.3.0 ('Over the Horizon') 32bit 2020-05-23 15:30:10 / mkvmerge v7.8.0 ('River Man') 32bit built on Apr 3 2015 12:11:22 2022-11-12 18:13:01
FromStats_BitRate : 94
FromStats_Duration : 02:37:05.194000000
FromStats_FrameCount : 1959
FromStats_StreamSize : 111623




Скачать Ложное искушение через торрент https://st-kp-yandex-net.translate.goog/images/film_iphone/iphone360_6869.jpg Скачать, смотреть онлайн Ложное искушение бесплантно в хорошем качестве Описание: Целеустремленный молодой идеалист Эдвард Уилсон поступает на службу в OSS. Это решение меняет не только его жизнь, но и мировую ... 10 10 3
Торрент: Зарегистрирован [2022-11-12 19:38] · скачан: 70 раз
Статус: √ проверено
Размер: 4.99 GB
Как cкачать? Как скачать Ложное искушение через торрент | UTorrent

% Раздел Тема Автор DL S | L
Фильмы 2006-2008 [ 1.37 GB ] Ложное искушение / The Good Shepherd | | DVDRip Один 777 Скачать
1 | 1
Фильмы [HD 720p, 1080p] (Хороший звук DUB, MVO) [ 9.45 GB ] Ложное искушение / The Good Shepherd | | 720p. diletant Скачать
1 | 0

28-11-2019 20:33  


Отключить вcю реклaмy на сайте, в т.ч. и в плеере онлайн просмотра!

    Дорогой пользователь! Огромная просьба, поблагодарите релизера, оцените раздачу и оставьте свои комментарий, если Вы скачали Ложное искушение через торрент бесплатно!!
    Комментировать посты могут только пользователи прошедшие не сложную регистрацию
    Показать сообщения:    


    Ложное искушение через торрент
    Скачать бесплатно Ложное искушение
    Ложное искушение скачать торрент
    Ложное искушение смотреть онлайн
    Cкачать фильм Ложное искушение бесплатно
    Ложное искушение скачать торрент в хорошем качестве
    Ложное искушение смотреть онлайн бесплатно в хорошем качестве
    Вы не можете начинать темы
    Вы не можете отвечать на сообщения
    Вы не можете редактировать свои сообщения
    Вы не можете удалять свои сообщения
    Вы не можете голосовать в опросах
    Вы не можете прикреплять файлы к сообщениям
    Вы можете скачивать файлы
    Ложное искушение / The Good Shepherd [2006 г.,триллер, мелодрама, драма, WEB-DLRip - HEVC 1080p 10 bit 60 FPS, AVO] смотреть онлайн, скачать торрент picoco.icu