Достать ножи: Стеклянная луковица

MVO

Добыча

Дубляж

Уэнсдэй

1 сезон

Тор

Дубляж

13 клиническая

1 сезон

Жестокая ночь

MVO

Одни из нас

1 сезон

Deluxe

pack

Рекомендуем

30

Пиратка

ВАЖНО

ВАЖНО

Ghostwire

Пиратка

jed

RePack

nioh2

RePack

RDR2

RePack

NEED FOR SPEED™ PAYBACK

RePack

скачать торрент

Кинопоиск HD

Острые козырьки 6 сезон

6 сезон

FAR CRY 6

RePack

скачать торрент

Лицензия

скачать торрент

MVO

1

1 сезон

скачать торрент

1 сезон

скачать торрент

Лицензия

  

Черепа / The Skulls (Роб Коэн) [2000 г., триллер, драма, криминал, WEB-DLRip - HEVC 1080p 10 bit 60 FPS, Дубляж]

Черепа через торрент pb.wtf

Раздают: 3 [ 0 KB/s ]
Размер: 3.16 GB | Добавлен: 2 мес. 16 д. назад | Торрент скачан:79 раз
Смотреть онлайн | Скачать | Поддержите нас   

13-11-2022 14:36 Черепа Скачать торрент  

The Skulls
«If a secret society can give you everything you desire, imagine what they can take away»
Информация о фильме:
Название: Черепа
Оригинальное название: The Skulls
Год выхода: 2000
Жанр: триллер, драма, криминал
Режиссер: Роб Коэн
В ролях: Джошуа Джексон — Люк МакНамара, Пол Уокер — Кейлеб Мандрейк, Хилл Харпер — Уилл Бекфорд, Лесли Бибб — Хлои Уитфилд, Кристофер МакДональд — Мартин Ломбард, Стив Харрис — детектив Спарроу, Уильям Петерсен — Эймс Леврит, Крэйг Т. Нельсон — Литтен Мандрейк, Дэвид Эсмэн — Джейсон Питкерн, Скотт Гибсон — Тревис Уилер, Найджел Беннетт — доктор Руперт Уитни, Эндрю Краулис — МакБрайд, Дерек Эслэнд — Салливан, Дженнифер Мелино — Джей Джей, Ной Дэнби — Хьюг Мауберсон
Описание: О существовании тайной могущественной организации догадывались многие. На самом деле ее люди давно проникли во все сферы американского общества. Поименно их не знал никто. Однако, по крайней мере, три бывших президента Америки состояли в «Черепах». Для Люка Макнамары приглашение вступить в «Черепа» стало сбывшейся мечтой. Перед ним открылись неограниченные возможности, подкрепленные материальными благами. Он стал избранным. Но цена обретения этого права оказалась непомерно высокой!


Страна: США, Канада
Студия: Cranium Films, Newmarket Capital Group LLC, Original Film, Universal Pictures
Продолжительность: 01:46:31
Перевод: Дублированный | Мосфильм-Мастер
Субтитры: русские | Мосфильм-Мастер
Навигация по главам: есть
Информация о файле:
Качество: WEB-DLRip - HEVC 1080p Rip by DD2D3
Формат: MKV
Видео: V_MPEGH/ISO/HEVC; 1920x1080 (16:9); 3774 Kbps; 60 fps; 0,030 bpp
Аудио: русский; AC3; 384 Kbps; CBR; 6 ch ||
Доп. информация: Open Matte

Общее
Уникальный идентификатор : 208056291399722142609623960224709150020 (0x9C862F25ED9D62B893F7333BD7670544)
Полное имя : E:\The Skulls (2000) [Open Matte] WEB-DLRip - HEVC 1080p 10 bit 60 FPS.mkv
Формат : Matroska
Версия формата : Version 2
Размер файла : 3,16 Гбайт
Продолжительность : 1 ч. 46 м.
Общий поток : 4 242 Кбит/сек
Название фильма : Rip by from DD2D3
Дата кодирования : UTC 2022-11-13 13:55:04
Программа кодирования : mkvmerge v7.8.0 ('River Man') 32bit built on Apr 3 2015 12:11:22
Библиотека кодирования : libebml v1.3.1 + libmatroska v1.4.2
Attachments : poster

Видео
Идентификатор : 1
Формат : HEVC
Формат/Информация : High Efficiency Video Coding
Профиль формата : Main [email protected]@Main
Идентификатор кодека : V_MPEGH/ISO/HEVC
Продолжительность : 1 ч. 46 м.
Битрейт : 3 774 Кбит/сек
Ширина : 1 920 пикселей
Высота : 1 080 пикселей
Соотношение сторон : 16:9
Режим частоты кадров : Постоянный
Частота кадров : 60,000 кадров/сек
Цветовое пространство : YUV
Субдискретизация насыщенности : 4:2:0
Битовая глубина : 10 бит
Бит/(Пиксели*Кадры) : 0.030
Размер потока : 2,81 Гбайт (89%)
Библиотека кодирования : x265 3.5+20-17839cc0d:[Windows][GCC 11.2.0][64 bit] 10bit
Настройки программы : cpuid=1111039 / frame-threads=2 / numa-pools=4 / wpp / no-pmode / no-pme / no-psnr / no-ssim / log-level=2 / input-csp=1 / input-res=1920x1080 / interlace=0 / total-frames=383507 / level-idc=41 / high-tier=1 / uhd-bd=0 / ref=3 / no-allow-non-conformance / no-repeat-headers / annexb / no-aud / no-eob / no-eos / no-hrd / info / hash=0 / no-temporal-layers / open-gop / min-keyint=5 / keyint=240 / gop-lookahead=0 / bframes=4 / b-adapt=2 / b-pyramid / bframe-bias=0 / rc-lookahead=20 / lookahead-slices=6 / scenecut=40 / no-hist-scenecut / radl=0 / no-splice / no-intra-refresh / ctu=64 / min-cu-size=8 / no-rect / no-amp / max-tu-size=8 / tu-inter-depth=1 / tu-intra-depth=1 / limit-tu=0 / rdoq-level=0 / dynamic-rd=0.00 / no-ssim-rd / signhide / no-tskip / nr-intra=0 / nr-inter=0 / no-constrained-intra / strong-intra-smoothing / max-merge=3 / limit-refs=1 / no-limit-modes / me=1 / subme=5 / merange=57 / temporal-mvp / no-frame-dup / no-hme / weightp / no-weightb / no-analyze-src-pics / deblock=0:0 / sao / no-sao-non-deblock / rd=3 / selective-sao=4 / early-skip / rskip / no-fast-intra / no-tskip-fast / no-cu-lossless / b-intra / no-splitrd-skip / rdpenalty=0 / psy-rd=2.00 / psy-rdoq=0.00 / no-rd-refine / no-lossless / cbqpoffs=-2 / crqpoffs=-2 / rc=abr / bitrate=3750 / qcomp=0.70 / qpstep=4 / stats-write=0 / stats-read=0 / ipratio=1.38 / pbratio=1.28 / aq-mode=2 / aq-strength=1.00 / cutree / zone-count=0 / no-strict-cbr / qg-size=32 / no-rc-grain / qpmax=69 / qpmin=0 / no-const-vbv / sar=1 / overscan=0 / videoformat=5 / range=0 / colorprim=1 / transfer=1 / colormatrix=1 / chromaloc=0 / display-window=0 / cll=0,0 / min-luma=0 / max-luma=1023 / log2-max-poc-lsb=8 / vui-timing-info / vui-hrd-info / slices=1 / no-opt-qp-pps / no-opt-ref-list-length-pps / no-multi-pass-opt-rps / scenecut-bias=0.05 / hist-threshold=0.03 / no-opt-cu-delta-qp / no-aq-motion / no-hdr10 / no-hdr10-opt / no-dhdr10-opt / no-idr-recovery-sei / analysis-reuse-level=0 / analysis-save-reuse-level=0 / analysis-load-reuse-level=0 / scale-factor=0 / refine-intra=0 / refine-inter=0 / refine-mv=1 / refine-ctu-distortion=0 / no-limit-sao / ctu-info=0 / no-lowpass-dct / refine-analysis-type=0 / copy-pic=1 / max-ausize-factor=1.0 / no-dynamic-refine / no-single-sei / no-hevc-aq / no-svt / no-field / qp-adaptation-range=1.00 / scenecut-aware-qp=0conformance-window-offsets / right=0 / bottom=0 / decoder-max-rate=0 / no-vbv-live-multi-pass
Default : Да
Forced : Нет
Цветовой диапазон : Limited
Основные цвета : BT.709
Характеристики трансфера : BT.709
Коэффициенты матрицы : BT.709

Аудио
Идентификатор : 2
Формат : AC-3
Формат/Информация : Audio Coding 3
Коммерческое название : Dolby Digital
Идентификатор кодека : A_AC3
Продолжительность : 1 ч. 46 м.
Вид битрейта : Постоянный
Битрейт : 384 Кбит/сек
Каналы : 6 каналов
Channel layout : L R C LFE Ls Rs
Частота : 48,0 КГц
Частота кадров : 31,250 кадров/сек (1536 SPF)
Метод сжатия : С потерями
Размер потока : 293 Мбайт (9%)
Заголовок : Дубляж | Мосфильм-Мастер
Язык : Russian
Service kind : Complete Main
Default : Да
Forced : Нет

Текст
Идентификатор : 3
Формат : UTF-8
Идентификатор кодека : S_TEXT/UTF8
Идентификатор кодека/Информация : UTF-8 Plain Text
Язык : Russian
Default : Нет
Forced : Нет

Меню
00:00:00.000 : en:Luke's Life (Main Title)
00:12:45.792 : en:Tapped by the Skulls
00:16:56.792 : en:A Snake Without Scales
00:21:18.792 : en:No Middle Ground
00:25:55.792 : en:Above Any Other
00:32:41.792 : en:To Be a Skull
00:41:23.792 : en:Suicide
00:49:13.792 : en:Liar's Hell
00:52:47.792 : en:Mandrake's Gambit
00:58:43.792 : en:Revenge of the Townies
01:06:38.792 : en:Skullduggery
01:11:23.792 : en:Luke's Revenge
01:14:29.792 : en:Surveillance
01:17:55.792 : en:Thorazine Hell
01:25:54.792 : en:Die by the Rules
01:31:47.792 : en:The Duel
01:40:05.792 : en:Redemption
01:41:49.792 : en:End Titles




Скачать Черепа через торрент https://st-kp-yandex-net.translate.goog/images/film_iphone/iphone360_6815.jpg Скачать, смотреть онлайн Черепа бесплантно в хорошем качестве Описание: О существовании тайной могущественной организации догадывались многие. На самом деле ее люди давно проникли во все сферы ... 10 10 5
Торрент: Зарегистрирован [2022-11-13 14:36] · скачан: 79 раз
Статус: √ проверено
Размер: 3.16 GB
Как cкачать? Как скачать Черепа через торрент | UTorrent

% Раздел Тема Автор DL S | L
Фильмы до 2000 г. [ 1.37 GB ] Черепа / Skulls, The | | DVDRip Pasha74 Скачать
1 | 1

28-11-2019 20:33  


Отключить вcю реклaмy на сайте, в т.ч. и в плеере онлайн просмотра!

    Дорогой пользователь! Огромная просьба, поблагодарите релизера, оцените раздачу и оставьте свои комментарий, если Вы скачали Черепа через торрент бесплатно!!
    Комментировать посты могут только пользователи прошедшие не сложную регистрацию
    Показать сообщения:    


    Черепа через торрент
    Скачать бесплатно Черепа
    Черепа скачать торрент
    Черепа смотреть онлайн
    Cкачать фильм Черепа бесплатно
    Черепа скачать торрент в хорошем качестве
    Черепа смотреть онлайн бесплатно в хорошем качестве
    Вы не можете начинать темы
    Вы не можете отвечать на сообщения
    Вы не можете редактировать свои сообщения
    Вы не можете удалять свои сообщения
    Вы не можете голосовать в опросах
    Вы не можете прикреплять файлы к сообщениям
    Вы можете скачивать файлы
    Черепа / The Skulls [2000 г., триллер, драма, криминал, WEB-DLRip - HEVC 1080p 10 bit 60 FPS, Дубляж] смотреть онлайн, скачать торрент picoco.icu