Достать ножи: Стеклянная луковица

MVO

Добыча

Дубляж

Уэнсдэй

1 сезон

Тор

Дубляж

13 клиническая

1 сезон

Жестокая ночь

MVO

Одни из нас

1 сезон

Deluxe

pack

Рекомендуем

30

Пиратка

ВАЖНО

ВАЖНО

Ghostwire

Пиратка

jed

RePack

nioh2

RePack

RDR2

RePack

NEED FOR SPEED™ PAYBACK

RePack

скачать торрент

Кинопоиск HD

Острые козырьки 6 сезон

6 сезон

FAR CRY 6

RePack

скачать торрент

Лицензия

скачать торрент

MVO

1

1 сезон

скачать торрент

1 сезон

скачать торрент

Лицензия

  

Звёздные войны: Сказания о джедаях / Tales of the Jedi / Сезон: 1 / Серии: 1-6 из 6 (Натаниэл Вильянуэва) [2022, Фантастика, фэнтези, боевик, драма, WEB-DL 1080p] 4xMVO+2xDUB

Звёздные войны: Сказания о джедаях через торрент pb.wtf

Раздают: 2 [ 32 KB/s ]
Размер: 5.08 GB | Добавлен: 2 мес. 23 д. назад | Торрент скачан:174 раза
Смотреть онлайн | Скачать | Поддержите нас   

13-11-2022 17:02 Звёздные войны: Сказания о джедаях Скачать торрент  

Звёздные войны: Сказания о джедаях
Tales of the Jedi

«---»
Год выпуска: 2022
Страна: США
Жанр: Фантастика, фэнтези, боевик, драма
Премьера (мир): 26 октября 2022, ...
Продолжительность: ~ 00:16:00 серия
Перевод:
- Профессиональный (многоголосый закадровый) | LostFilm
- Профессиональный (многоголосый закадровый) | HDRezka
- Профессиональный (многоголосый закадровый) | TVShows
- Любительский (многоголосый закадровый) | NewComers
- Дублированный (любительский) | Flarrow Films
- Дублированный | Red Head Sound
Субтитры: Русские (Forced |HDRezka|, Full |Где тексты, Лебовски?|), английские (SDH)

Режиссер: Натаниэл Вильянуэва

rating

В ролях: Эшли Экштейн (Ashley Eckstein), Лиам Нисон (Liam Neeson), Брайс Даллас Ховард (Bryce Dallas Howard), Янина Гаванкар (Janina Gavankar)

Описание: Сериал-антология, каждый эпизод которого рассказывает историю с участием джедаев времён Трилогии приквелов. Шесть эпизодов разбиты на два «пути»: первый рассказывает о различных этапах жизни Асоки Тано, а второй опишет юность графа Дуку до его перехода на Тёмную сторону Силы.

Качество: WEB-DL 1080p
Формат: MKV

Видео: AVC, 1920 x 1080 (1.778), 24.000 fps, ~6 569 kbps
Аудио Rus: AC-3, 48 kHz, 6 ch, 384 kbps |LostFilm|
Аудио Rus: AC-3, 48 kHz, 6 ch, 384 kbps |HDRezka|
Аудио Rus: AC-3, 48 kHz, 2 ch, 192 kbps |TVShows|
Аудио Rus: AC-3, 48 kHz, 6 ch, 384 kbps |NewComers|
Аудио Rus: AC-3, 48 kHz, 2 ch, 192 kbps |Flarrow Films|
Аудио Rus: AC-3, 48 kHz, 2 ch, 256 kbps |Red Head Sound|
Аудио Eng: E-AC-3, 48 kHz, 6 ch, 256 kbps |Original|
скриншот  скриншот  скриншот  скриншот  скриншот  скриншот  

Общее
Уникальный идентификатор : 247979196878068595923787857995648447016 (0xBA8F0E5B9A78A11492D2AC56A37FB228)
Полное имя : E:\_Сериалы\_Сериалы\Сказания о джедаях\Star.Wars.Tales.of.the.Jedi.S01.WEBDL.1080p.Rus.Eng\Star.Wars.Tales.of.the.Jedi.S01E01.WEBDL.1080p.RGzsRutracker.mkv
Формат : Matroska
Версия формата : Version 4
Размер файла : 1,02 Гбайт
Продолжительность : 16 м. 56 с.
Режим общего битрейта : Переменный
Общий поток : 8 612 Кбит/сек
Дата кодирования : UTC 2022-11-12 18:41:59
Программа кодирования : mkvmerge v71.1.0 ('Fortitude') 64-bit
Библиотека кодирования : libebml v1.4.4 + libmatroska v1.7.1

Видео
Идентификатор : 1
Формат : AVC
Формат/Информация : Advanced Video Codec
Профиль формата : [email protected]
Настройки формата : CABAC / 4 Ref Frames
Параметр CABAC формата : Да
Параметр RefFrames формата : 4 кадра
Идентификатор кодека : V_MPEG4/ISO/AVC
Продолжительность : 16 м. 55 с.
Вид битрейта : Переменный
Битрейт : 6 569 Кбит/сек
Максимальный битрейт : 12,7 Мбит/сек
Ширина : 1 920 пикселей
Высота : 1 080 пикселей
Соотношение сторон : 16:9
Режим частоты кадров : Постоянный
Частота кадров : 24,000 кадра/сек
Цветовое пространство : YUV
Субдискретизация насыщенности : 4:2:0
Битовая глубина : 8 бит
Тип развёртки : Прогрессивная
Бит/(Пиксели*Кадры) : 0.132
Размер потока : 795 Мбайт (76%)
Язык : English
Default : Да
Forced : Нет
Цветовой диапазон : Limited
Основные цвета : BT.709
Характеристики трансфера : BT.709
Коэффициенты матрицы : BT.709

Аудио #1
Идентификатор : 2
Формат : AC-3
Формат/Информация : Audio Coding 3
Коммерческое название : Dolby Digital
Идентификатор кодека : A_AC3
Продолжительность : 16 м. 54 с.
Вид битрейта : Постоянный
Битрейт : 384 Кбит/сек
Каналы : 2 канала
Channel layout : L R
Частота : 48,0 КГц
Частота кадров : 31,250 кадров/сек (1536 SPF)
Метод сжатия : С потерями
Размер потока : 46,5 Мбайт (4%)
Заголовок : LF
Язык : Russian
Service kind : Complete Main
Default : Да
Forced : Нет

Аудио #2
Идентификатор : 3
Формат : AC-3
Формат/Информация : Audio Coding 3
Коммерческое название : Dolby Digital
Идентификатор кодека : A_AC3
Продолжительность : 16 м. 55 с.
Вид битрейта : Постоянный
Битрейт : 384 Кбит/сек
Каналы : 6 каналов
Channel layout : L R C LFE Ls Rs
Частота : 48,0 КГц
Частота кадров : 31,250 кадров/сек (1536 SPF)
Метод сжатия : С потерями
Размер потока : 46,5 Мбайт (4%)
Заголовок : HDr
Язык : Russian
Service kind : Complete Main
Default : Нет
Forced : Нет

Аудио #3
Идентификатор : 4
Формат : AC-3
Формат/Информация : Audio Coding 3
Коммерческое название : Dolby Digital
Идентификатор кодека : A_AC3
Продолжительность : 16 м. 55 с.
Вид битрейта : Постоянный
Битрейт : 192 Кбит/сек
Каналы : 2 канала
Channel layout : L R
Частота : 48,0 КГц
Частота кадров : 31,250 кадров/сек (1536 SPF)
Битовая глубина : 16 бит
Метод сжатия : С потерями
Размер потока : 23,2 Мбайт (2%)
Заголовок : TVS
Язык : Russian
Service kind : Complete Main
Default : Нет
Forced : Нет

Аудио #4
Идентификатор : 5
Формат : AC-3
Формат/Информация : Audio Coding 3
Коммерческое название : Dolby Digital
Идентификатор кодека : A_AC3
Продолжительность : 16 м. 56 с.
Вид битрейта : Постоянный
Битрейт : 384 Кбит/сек
Каналы : 6 каналов
Channel layout : L R C LFE Ls Rs
Частота : 48,0 КГц
Частота кадров : 31,250 кадров/сек (1536 SPF)
Метод сжатия : С потерями
Размер потока : 46,5 Мбайт (4%)
Заголовок : NC
Язык : Russian
Service kind : Complete Main
Default : Нет
Forced : Нет

Аудио #5
Идентификатор : 6
Формат : AC-3
Формат/Информация : Audio Coding 3
Коммерческое название : Dolby Digital
Идентификатор кодека : A_AC3
Продолжительность : 16 м. 55 с.
Вид битрейта : Постоянный
Битрейт : 192 Кбит/сек
Каналы : 2 канала
Channel layout : L R
Частота : 48,0 КГц
Частота кадров : 31,250 кадров/сек (1536 SPF)
Метод сжатия : С потерями
Размер потока : 23,2 Мбайт (2%)
Заголовок : FF
Язык : Russian
Service kind : Complete Main
Default : Нет
Forced : Нет

Аудио #6
Идентификатор : 7
Формат : AC-3
Формат/Информация : Audio Coding 3
Коммерческое название : Dolby Digital
Идентификатор кодека : A_AC3
Продолжительность : 16 м. 55 с.
Вид битрейта : Постоянный
Битрейт : 256 Кбит/сек
Каналы : 2 канала
Channel layout : L R
Частота : 48,0 КГц
Частота кадров : 31,250 кадров/сек (1536 SPF)
Метод сжатия : С потерями
Размер потока : 31,0 Мбайт (3%)
Заголовок : RHS
Язык : Russian
Service kind : Complete Main
Default : Нет
Forced : Нет

Аудио #7
Идентификатор : 8
Формат : E-AC-3
Формат/Информация : Enhanced AC-3
Коммерческое название : Dolby Digital Plus
Идентификатор кодека : A_EAC3
Продолжительность : 16 м. 55 с.
Вид битрейта : Постоянный
Битрейт : 256 Кбит/сек
Каналы : 6 каналов
Channel layout : L R C LFE Ls Rs
Частота : 48,0 КГц
Частота кадров : 31,250 кадров/сек (1536 SPF)
Метод сжатия : С потерями
Размер потока : 31,0 Мбайт (3%)
Заголовок : Eng
Язык : English
Service kind : Complete Main
Default : Нет
Forced : Нет

Текст #1
Идентификатор : 9
Формат : UTF-8
Идентификатор кодека : S_TEXT/UTF8
Идентификатор кодека/Информация : UTF-8 Plain Text
Продолжительность : 13 м. 51 с.
Битрейт : 1 бит/сек
Частота кадров : 0,002 кадр/сек
Count of elements : 2
Размер потока : 130 байт (0%)
Заголовок : Forc
Язык : Russian
Default : Да
Forced : Нет

Текст #2
Идентификатор : 10
Формат : UTF-8
Идентификатор кодека : S_TEXT/UTF8
Идентификатор кодека/Информация : UTF-8 Plain Text
Продолжительность : 15 м. 18 с.
Битрейт : 14 бит/сек
Частота кадров : 0,042 кадр/сек
Count of elements : 39
Размер потока : 1,67 Кбайт (0%)
Заголовок : Rus
Язык : Russian
Default : Нет
Forced : Нет

Текст #3
Идентификатор : 11
Формат : UTF-8
Идентификатор кодека : S_TEXT/UTF8
Идентификатор кодека/Информация : UTF-8 Plain Text
Продолжительность : 14 м. 58 с.
Битрейт : 8 бит/сек
Частота кадров : 0,040 кадр/сек
Count of elements : 36
Размер потока : 918 байт (0%)
Заголовок : Eng
Язык : English
Default : Нет
Forced : Нет

Текст #4
Идентификатор : 12
Формат : UTF-8
Идентификатор кодека : S_TEXT/UTF8
Идентификатор кодека/Информация : UTF-8 Plain Text
Продолжительность : 15 м. 36 с.
Битрейт : 16 бит/сек
Частота кадров : 0,116 кадр/сек
Count of elements : 109
Размер потока : 1,91 Кбайт (0%)
Заголовок : SDH
Язык : English
Default : Нет
Forced : Нет

Меню
00:02:23.167 : en:Intro
00:02:29.708 : en:Scene 1
00:16:14.833 : en:Credits

Когда раздача ведётся путём добавления новых серий, при каждом добавлении создётся новый торрент. Чтобы начать докачку новой серии, пользователям необходимо сделать следующее:
(1) остановить скачивание,
(2) удалить старый торрент у себя из клиента (старые серии удалять не надо),
(3) скачать новый торрент и запустить его у себя в клиенте вместо старого, при этом указать клиенту путь в старую папку, куда и должно происходить скачивание новых серий.
Ваш клиент при этом должен произвести хеширование (проверку) старой папки (если не производит сам - помогите ему сделать это), и будет докачивать только те серии, которых у вас ещё нет. Старые серии при этом не удаляются, а продолжают раздаваться!
Eсли вы уже удалили старые серии, то предотвратить повторную закачку старых серий можно, отжав галочку в соответсвующих местах при запуске нового торрента. По возможности, желательно не удалять старые серии как можно дольше, чтобы релизёр не столько продолжал раздавать старые серии, а смог сконцентрироваться на новых.




Скачать Звёздные войны: Сказания о джедаях через торрент https://i4-imageban-ru.translate.goog/out/2022/10/28/4b3cd17799cc1015688a41f8949bc6fc.png Скачать, смотреть онлайн Звёздные войны: Сказания о джедаях бесплантно в хорошем качестве Описание: Сериал-антология, каждый эпизод которого рассказывает историю с участием джедаев времён Трилогии приквелов. Шесть эпизодов ... 9 10 8
Торрент: Зарегистрирован [2022-11-13 17:02] · скачан: 174 раз
Статус: √ проверено
Размер: 5.08 GB
Как cкачать? Как скачать Звёздные войны: Сказания о джедаях через торрент | UTorrent

28-11-2019 20:33  


Отключить вcю реклaмy на сайте, в т.ч. и в плеере онлайн просмотра!

21-01-2023 12:50 Звёздные войны: Сказания о джедаях Скачать торрент  

Ужасный мультик



    Дорогой пользователь! Огромная просьба, поблагодарите релизера, оцените раздачу и оставьте свои комментарий, если Вы скачали Звёздные войны: Сказания о джедаях через торрент бесплатно!!
    Комментировать посты могут только пользователи прошедшие не сложную регистрацию
    Показать сообщения:    


    Звёздные войны: Сказания о джедаях через торрент
    Скачать бесплатно Звёздные войны: Сказания о джедаях
    Звёздные войны: Сказания о джедаях скачать торрент
    Звёздные войны: Сказания о джедаях смотреть онлайн
    Cкачать фильм Звёздные войны: Сказания о джедаях бесплатно
    Звёздные войны: Сказания о джедаях скачать торрент в хорошем качестве
    Звёздные войны: Сказания о джедаях смотреть онлайн бесплатно в хорошем качестве
    Вы не можете начинать темы
    Вы не можете отвечать на сообщения
    Вы не можете редактировать свои сообщения
    Вы не можете удалять свои сообщения
    Вы не можете голосовать в опросах
    Вы не можете прикреплять файлы к сообщениям
    Вы можете скачивать файлы
    Звёздные войны: Сказания о джедаях / Tales of the Jedi / Сезон: 1 / Серии: 1-6 из 6 [2022, Фантастика, фэнтези, боевик, драма, WEB-DL 1080p] 4xMVO+2xDUB смотреть онлайн, скачать торрент picoco.icu