Достать ножи: Стеклянная луковица

MVO

Добыча

Дубляж

Уэнсдэй

1 сезон

Тор

Дубляж

13 клиническая

1 сезон

Жестокая ночь

MVO

Одни из нас

1 сезон

Deluxe

pack

Рекомендуем

30

Пиратка

ВАЖНО

ВАЖНО

Ghostwire

Пиратка

jed

RePack

nioh2

RePack

RDR2

RePack

NEED FOR SPEED™ PAYBACK

RePack

скачать торрент

Кинопоиск HD

Острые козырьки 6 сезон

6 сезон

FAR CRY 6

RePack

скачать торрент

Лицензия

скачать торрент

MVO

1

1 сезон

скачать торрент

1 сезон

скачать торрент

Лицензия

  

Исчезающий / Endangered (Дрю Уокап) [2020 г., триллер, WEB-DLRip, Профессиональный многоголосый закадровый "OKKO"]

Исчезающий через торрент pb.wtf

Раздают: 2 [ 0 KB/s ]
Размер: 711 MB | Добавлен: 2 мес. 15 д. назад | Торрент скачан:41 раз
Смотреть онлайн | Скачать | Поддержите нас   

14-11-2022 17:49 Исчезающий Скачать торрент  

Исчезающий / Endangered
Год выпуска: 2020
Страна: США / REBL HQ
Жанр: триллер
Продолжительность: 01:26:20
Перевод: Профессиональный многоголосый закадровый (OKKO)

Режиссер: Дрю Уокап

rating

В ролях: Лиззи Жеребко, Майкл Лоусон, Мэри Джейн Бостик, Алеа Фигероа, Дэнни Рокин, Джон Харди, Дж. Р. Ридж, Стефан Лоранц, Шейн Коста, Лиз М. Дэй

Описание: Водитель такси неожиданно оказывается в опасности после того, как подбирает таинственного пассажира, который совсем не тот, кем кажется.

Качество: WEB-DLRip
Формат: AVI
Видео кодек: DivX
Аудио кодек: MP3
Видео: MPEG4, DivX 4, 640x272 (2.35:1), 23.976 fps, 1 013 kb/s (0.243 bit/pixel)
Аудио: MP3, 48.0 kHz, 2 ch, 128 kb/s, CBR

General
Complete name : G:\ФИЛЬМЫ\Исчезающий.2020.WEB-DLRip.avi
Format : AVI
Format/Info : Audio Video Interleave
File size : 711 MiB
Duration : 1 h 26 min
Overall bit rate : 1 151 kb/s
Writing application : VirtualDubMod 1.5.10.3 | www.virtualdub-fr.org || (build 2550/release)
Writing library : VirtualDubMod build 2550/release

Video
ID : 0
Format : MPEG-4 Visual
Format profile : Advanced [email protected]
Format settings : BVOP2
Format settings, BVOP : 2
Format settings, QPel : No
Format settings, GMC : No warppoints
Format settings, Matrix : Default (MPEG)
Codec ID : DIVX
Codec ID/Info : Project Mayo
Codec ID/Hint : DivX 4
Duration : 1 h 26 min
Bit rate : 1 013 kb/s
Width : 640 pixels
Height : 272 pixels
Display aspect ratio : 2.35:1
Frame rate : 23.976 (24000/1001) FPS
Color space : YUV
Chroma subsampling : 4:2:0
Bit depth : 8 bits
Scan type : Progressive
Compression mode : Lossy
Bits/(Pixel*Frame) : 0.243
Stream size : 626 MiB (88%)
Writing library : XviD 1.2.1 (UTC 2008-12-04)

Audio
ID : 1
Format : MPEG Audio
Format version : Version 1
Format profile : Layer 3
Format settings : Joint stereo
Codec ID : 55
Codec ID/Hint : MP3
Duration : 1 h 26 min
Bit rate mode : Constant
Bit rate : 128 kb/s
Channel(s) : 2 channels
Sampling rate : 48.0 kHz
Frame rate : 41.667 FPS (1152 SPF)
Compression mode : Lossy
Stream size : 79.1 MiB (11%)
Alignment : Aligned on interleaves
Interleave, duration : 42 ms (1.00 video frame)
Interleave, preload duration : 504 ms
Writing library : LAME3.99r
Encoding settings : -m j -V 4 -q 2 -lowpass 17 -b 128




Скачать Исчезающий через торрент https://i120.fastpic.org/big/2022/1114/94/f5d744ad70290e4abe8c9666c6470094.png Скачать, смотреть онлайн Исчезающий бесплантно в хорошем качестве Описание: Водитель такси неожиданно оказывается в опасности после того, как подбирает таинственного пассажира, который совсем не тот, кем ... 10 10 2
Торрент: Зарегистрирован [2022-11-14 17:49] · скачан: 41 раз
Статус: √ проверено
Размер: 711 MB
Как cкачать? Как скачать Исчезающий через торрент | UTorrent

28-11-2019 20:33  


Отключить вcю реклaмy на сайте, в т.ч. и в плеере онлайн просмотра!

    Дорогой пользователь! Огромная просьба, поблагодарите релизера, оцените раздачу и оставьте свои комментарий, если Вы скачали Исчезающий через торрент бесплатно!!
    Комментировать посты могут только пользователи прошедшие не сложную регистрацию
    Показать сообщения:    


    Исчезающий через торрент
    Скачать бесплатно Исчезающий
    Исчезающий скачать торрент
    Исчезающий смотреть онлайн
    Cкачать фильм Исчезающий бесплатно
    Исчезающий скачать торрент в хорошем качестве
    Исчезающий смотреть онлайн бесплатно в хорошем качестве
    Вы не можете начинать темы
    Вы не можете отвечать на сообщения
    Вы не можете редактировать свои сообщения
    Вы не можете удалять свои сообщения
    Вы не можете голосовать в опросах
    Вы не можете прикреплять файлы к сообщениям
    Вы можете скачивать файлы
    Исчезающий / Endangered [2020 г., триллер, WEB-DLRip, Профессиональный многоголосый закадровый "OKKO"] смотреть онлайн, скачать торрент picoco.icu