Достать ножи: Стеклянная луковица

MVO

Добыча

Дубляж

Уэнсдэй

1 сезон

Тор

Дубляж

13 клиническая

1 сезон

Жестокая ночь

MVO

Одни из нас

1 сезон

Deluxe

pack

Рекомендуем

30

Пиратка

ВАЖНО

ВАЖНО

Ghostwire

Пиратка

jed

RePack

nioh2

RePack

RDR2

RePack

NEED FOR SPEED™ PAYBACK

RePack

скачать торрент

Кинопоиск HD

Острые козырьки 6 сезон

6 сезон

FAR CRY 6

RePack

скачать торрент

Лицензия

скачать торрент

MVO

1

1 сезон

скачать торрент

1 сезон

скачать торрент

Лицензия

  

Бандит / Bandit (Аллан Ангар) [2022, Триллер, драма, криминал, WEB-DLRip-AVC] Дубляж [Akimbo Production]

Бандит через торрент pb.wtf

Раздают: 10 [ 0 KB/s ]
Размер: 2.11 GB | Добавлен: 2 мес. 15 д. назад | Торрент скачан:393 раза
Смотреть онлайн | Скачать | Поддержите нас   

17-11-2022 19:38 Бандит Скачать торрент  

Бандит
Bandit

Год выпуска: 2022
Страна: Канада
Выпущено: Yale Productions, BondIt Media Capital, Buffalo 8 Productions
Жанр: Триллер, драма, криминал
Продолжительность: 02:05:49
Перевод: Дублированный | Akimbo Production
Субтитры: Русские (Forced), английские

Режиссер: Аллан Ангар

rating

В ролях: Мэл Гибсон, Элиша Катберт, Оливия д’Або, Джош Дюамель, Нестор Карбонелл, Рэйчел Маркариан, Хейли Уэбб, Майкл Х. Коул, Клер Бронсон, Свен Теммел, Лесли Стрэттон, Кэмерон Худ, Dayna Beilenson, Клэйтон Ланди, Селеста Фианна

Описание: Гилберту Галвану-младшему удается сбежать из американской тюрьмы и перебраться в Канаду. Влюбившись в соцработницу Андреа, он решает начать грабить банки, чтобы она ни в чем не нуждалась. Вести двойную жизнь оказывается непросто, но сначала у опытного грабителя мастерски получается заметать следы.

Качество: WEB-DLRip-AVC
Формат: MKV

Видео: MPEG-4 AVC, 1024x428 at 23.976 fps, [email protected], ~1627 kbps
Аудио 1: AC3, 6 ch, ~384 kbps - | Русский |
Аудио 2: AC3, 6 ch, ~384 kbps - | Английский |
скриншот  скриншот  скриншот  скриншот  

x264 [info]: frame I:1795 Avg QP:16.95 size: 42080
x264 [info]: frame P:39305 Avg QP:18.96 size: 16530
x264 [info]: frame B:139895 Avg QP:21.04 size: 5792
x264 [info]: consecutive B-frames: 1.7% 2.0% 4.2% 38.4% 12.1% 34.0% 2.8% 1.7% 0.4% 1.3% 0.2% 0.7% 0.4%

General
Unique ID : 246000065213350880084502161874124206025 (0xB911E3A20EE055ECA58B7619F7BAEFC9)
Complete name : D:Bandit.2022.Дубляж.WEB-DLRip.x264.seleZen.mkv
Format : Matroska
Format version : Version 4
File size : 2.11 GiB
Duration : 2 h 5 min
Overall bit rate : 2 398 kb/s
Movie name : Bandit.2022.Дубляж.WEB-DLRip.x264.seleZen
Encoded date : UTC 2022-11-17 10:19:05
Writing application : mkvmerge v72.0.0 ('Minuano (Six-eight)') 64-bit
Writing library : libebml v1.4.4 + libmatroska v1.7.1
Cover : Yes
Attachments : cover.jpg / small_cover.jpg

Video
ID : 1
Format : AVC
Format/Info : Advanced Video Codec
Format profile : [email protected]
Format settings : CABAC / 12 Ref Frames
Format settings, CABAC : Yes
Format settings, Reference : 12 frames
Codec ID : V_MPEG4/ISO/AVC
Duration : 2 h 5 min
Bit rate : 1 627 kb/s
Width : 1 024 pixels
Height : 428 pixels
Display aspect ratio : 2.40:1
Frame rate mode : Constant
Frame rate : 23.976 (24000/1001) FPS
Color space : YUV
Chroma subsampling : 4:2:0
Bit depth : 8 bits
Scan type : Progressive
Bits/(Pixel*Frame) : 0.155
Stream size : 1.43 GiB (68%)
Title : -=DoMiNo=-
Writing library : x264 core 164 r3099+55M 141af3f t_mod_New | by -=DoMiNo=- | X86_64
Encoding settings : cabac=1 / ref=12 / deblock=1:-3:-2 / analyse=0x3:0x133 / me=umh / subme=10 / psy=1 / fade_compensate=0.00 / psy_rd=1.10:0.00 / mixed_ref=1 / me_range=32 / chroma_me=1 / trellis=2 / 8x8dct=1 / cqm=0 / deadzone=21,11 / fast_pskip=0 / chroma_qp_offset=-2 / threads=17 / lookahead_threads=3 / sliced_threads=0 / nr=0 / decimate=1 / interlaced=0 / bluray_compat=0 / constrained_intra=0 / fgo=0 / bframes=12 / b_pyramid=2 / b_adapt=2 / b_bias=0 / direct=1 / weightb=1 / open_gop=0 / weightp=2 / keyint=250 / keyint_min=23 / scenecut=40 / intra_refresh=0 / rc_lookahead=60 / rc=crf / mbtree=0 / crf=20.0000 / qcomp=0.60 / qpmin=0:0:0 / qpmax=69:69:69 / qpstep=4 / vbv_maxrate=50000 / vbv_bufsize=62500 / crf_max=0.0 / nal_hrd=none / filler=0 / ip_ratio=1.35 / pb_ratio=1.25 / aq=3:0.80 / aq-sensitivity=10.00 / aq-factor=1.00:1.00:1.00 / aq2=0 / aq3=0
Language : English
Default : Yes
Forced : No
Color range : Limited
Matrix coefficients : BT.709

Audio #1
ID : 2
Format : AC-3
Format/Info : Audio Coding 3
Commercial name : Dolby Digital
Codec ID : A_AC3
Duration : 2 h 5 min
Bit rate mode : Constant
Bit rate : 384 kb/s
Channel(s) : 6 channels
Channel layout : L R C LFE Ls Rs
Sampling rate : 48.0 kHz
Frame rate : 31.250 FPS (1536 SPF)
Compression mode : Lossy
Stream size : 346 MiB (16%)
Title : Дубляж [Akimbo production]
Language : Russian
Service kind : Complete Main
Default : Yes
Forced : Yes

Audio #2
ID : 3
Format : AC-3
Format/Info : Audio Coding 3
Commercial name : Dolby Digital
Codec ID : A_AC3
Duration : 2 h 5 min
Bit rate mode : Constant
Bit rate : 384 kb/s
Channel(s) : 6 channels
Channel layout : L R C LFE Ls Rs
Sampling rate : 48.0 kHz
Frame rate : 31.250 FPS (1536 SPF)
Compression mode : Lossy
Stream size : 346 MiB (16%)
Title : Original
Language : English
Service kind : Complete Main
Default : No
Forced : No

Text #1
ID : 4
Format : UTF-8
Codec ID : S_TEXT/UTF8
Codec ID/Info : UTF-8 Plain Text
Duration : 1 h 57 min
Bit rate : 5 b/s
Count of elements : 87
Stream size : 4.95 KiB (0%)
Title : Forced
Language : Russian
Default : Yes
Forced : Yes

Text #2
ID : 5
Format : UTF-8
Codec ID : S_TEXT/UTF8
Codec ID/Info : UTF-8 Plain Text
Duration : 1 h 57 min
Bit rate : 69 b/s
Count of elements : 2186
Stream size : 59.3 KiB (0%)
Title : Full
Language : English
Default : No
Forced : No

Text #3
ID : 6
Format : UTF-8
Codec ID : S_TEXT/UTF8
Codec ID/Info : UTF-8 Plain Text
Duration : 1 h 58 min
Bit rate : 75 b/s
Count of elements : 2480
Stream size : 65.6 KiB (0%)
Title : SDH
Language : English
Default : No
Forced : No

Menu
00:00:00.000 : en:Chapter 01
00:08:31.469 : en:Chapter 02
00:23:11.016 : en:Chapter 03
00:38:34.439 : en:Chapter 04
00:47:31.017 : en:Chapter 05
00:59:50.757 : en:Chapter 06
01:09:32.339 : en:Chapter 07
01:19:08.123 : en:Chapter 08
01:30:04.237 : en:Chapter 09
01:39:37.727 : en:Chapter 10
01:49:05.086 : en:Chapter 11
01:58:21.101 : en:Chapter 12




Скачать Бандит через торрент https://i120.fastpic.org/big/2022/1117/2a/87c4cae91ccd8e1b163b71246fcf612a.jpg Скачать, смотреть онлайн Бандит бесплантно в хорошем качестве Описание: Гилберту Галвану-младшему удается сбежать из американской тюрьмы и перебраться в Канаду. Влюбившись в соцработницу Андреа, он ... 10 10 10
Info! Золотая раздача, скачанное не засчитывается.
Торрент: Зарегистрирован [2022-11-17 19:38] · скачан: 393 раз
Статус: √ проверено
Размер: 2.11 GB
Как cкачать? Как скачать Бандит через торрент | UTorrent

% Раздел Тема Автор DL S | L
Фильмы 2022-2023 [DVDrip, WEB-DLRip, HDrip] (DUB, MVO) [ 2.18 GB ] Бандит / Bandit | DUB | BDRip bober100 Скачать
7 | 0
Фильмы 2022-2023 [DVDrip, WEB-DLRip, HDrip] (DUB, MVO) [ 1.46 GB ] Бандит / Bandit | DUB | BDRip bober100 Скачать
13 | 0
Фильмы (HD 720p, 1080p) (48-60 fps) [ 4.43 GB ] Бандит / Bandit | Jaskier | DLRip 720p / 60 FPS slaventi-69 Скачать
8 | 2
Фильмы (WEB-DL 720p, 1080p) [ 9.49 GB ] Бандит / Bandit | Jaskier | 1080p bober100 Скачать
7 | 0

28-11-2019 20:33  


Отключить вcю реклaмy на сайте, в т.ч. и в плеере онлайн просмотра!

    Дорогой пользователь! Огромная просьба, поблагодарите релизера, оцените раздачу и оставьте свои комментарий, если Вы скачали Бандит через торрент бесплатно!!
    Комментировать посты могут только пользователи прошедшие не сложную регистрацию
    Показать сообщения:    


    Бандит через торрент
    Скачать бесплатно Бандит
    Бандит скачать торрент
    Бандит смотреть онлайн
    Cкачать фильм Бандит бесплатно
    Бандит скачать торрент в хорошем качестве
    Бандит смотреть онлайн бесплатно в хорошем качестве
    Вы можете начинать темы
    Вы можете отвечать на сообщения
    Вы не можете редактировать свои сообщения
    Вы не можете удалять свои сообщения
    Вы не можете голосовать в опросах
    Вы не можете прикреплять файлы к сообщениям
    Вы можете скачивать файлы
    Бандит / Bandit [2022, Триллер, драма, криминал, WEB-DLRip-AVC] Дубляж [Akimbo Production] смотреть онлайн, скачать торрент picoco.icu