Доктор Стрэндж

Лицензия

Добыча

Дубляж

Дом дракона

1 сезон

Тор

Дубляж

В эфире

Дубляж

Там, где раки поют

MVO

Властелин колец

1 сезон

GLOBAL

pack

Рекомендуем

30

Пиратка

ВАЖНО

ВАЖНО

Ghostwire

Пиратка

jed

RePack

nioh2

RePack

RDR2

RePack

NEED FOR SPEED™ PAYBACK

RePack

скачать торрент

Кинопоиск HD

Острые козырьки 6 сезон

6 сезон

FAR CRY 6

RePack

скачать торрент

Лицензия

скачать торрент

MVO

1

1 сезон

скачать торрент

1 сезон

скачать торрент

Лицензия

  

Зверь / Beast (Бальтасар Кормакур) [2022, Ужасы, триллер, драма, приключения, BD Remux 1080p] Дубляж [Bravo Records Georgia] +2xMVO [Jaskier, TVShows]

Зверь через торрент pb.wtf

Раздают: 2 [ 0 KB/s ]
Размер: 24.53 GB | Добавлен: 9 д. назад | Торрент скачан:16 раз
Смотреть онлайн | Скачать   

21-11-2022 21:33 Зверь Скачать торрент  

Зверь
Beast

Год выпуска: 2022
Страна: США
Студия: Universal Pictures, RVK Studios, Will Packer Productions
Жанр: Ужасы, триллер, драма, приключения
Продолжительность: 01:32:46
Перевод(ы):
Дублированный | Bravo Records Georgia
Профессиональный (многоголосый) | Jaskier
Профессиональный (многоголосый) | TVShows
Субтитры: русские (Forced, Full), английские

Режиссер: Бальтасар Кормакур

rating

В ролях: Идрис Эльба, Шарлто Копли, Ияна Хэлли, Леа Джеффрис, Мелани Джарнсон, Анзор Алем, Билли Галлахер, Дориан Хеджвуд, Кейт Грисли, Трэвис Лемрик

Описание: Доктор Нэйт Дэниелс после смерти жены возвращается в Южную Африку, где они познакомились. Вместе с дочерьми он направляется в заповедник, которым управляет давний друг семьи Мартин Баттлс. Однако семейная поездка оборачивается опасным приключением, в котором Нэйту придется бороться за выживание со свирепым львом.

Качество: BD Remux 1080p
Формат: MKV

Видео: MPEG-4 AVC, 1920x1080, 32.0 Mbit/s, 23.976 fps
Аудио #01: 48 kHz, AC3, 5.1, 384 Kbps | Дублированный | Bravo Records Georgia | RUS |
Аудио #02: 48 kHz, AC3, 5.1, 448 Kbps | Профессиональный многоголосый | Jaskier | RUS |
Аудио #03: 48 kHz, AC3, 2.0, 192 Kbps | Профессиональный многоголосый | TVShows | RUS |
Аудио #04: 48 kHz, DTS-HD MA, 7.1, 4812 Kbps | Оригинал | ENG |
скриншот  скриншот  скриншот  скриншот  скриншот  скриншот  

General
Unique ID: 133297085315879246498540822595304461111 (0x644815B62B722F833A8078770CE89337)
Complete name: D:VideosBeast.2022.BDREMUX.1080p.seleZen.mkv
Format: Matroska
Format version: Version 4
File size: 24.5 GiB
Duration: 1 h 32 min
Overall bit rate mode: Variable
Overall bit rate: 37.9 Mb/s
Movie name: Beast 2022 from seleZen
Encoded date: UTC 2022-11-21 14:42:01
Writing application: mkvmerge v59.0.0 ('Shining Star') 64-bit
Writing library: libebml v1.4.2 + libmatroska v1.6.4

Video
ID: 1
Format: AVC
Format/Info: Advanced Video Codec
Format profile: [email protected]
Format settings: CABAC / 4 Ref Frames
Format settings, CABAC: Yes
Format settings, Reference: 4 frames
Codec ID: V_MPEG4/ISO/AVC
Duration: 1 h 32 min
Bit rate mode: Variable
Bit rate: 32.0 Mb/s
Maximum bit rate: 35.0 Mb/s
Width: 1 920 pixels
Height: 1 080 pixels
Display aspect ratio: 16:9
Frame rate mode: Constant
Frame rate: 23.976 (24000/1001) FPS
Color space: YUV
Chroma subsampling: 4:2:0
Bit depth: 8 bits
Scan type: Progressive
Bits/(Pixel*Frame): 0.644
Stream size: 20.7 GiB (85%)
Language: English
Default: Yes
Forced: No

Audio #1
ID: 2
Format: AC-3
Format/Info: Audio Coding 3
Commercial name: Dolby Digital
Codec ID: A_AC3
Duration: 1 h 32 min
Bit rate mode: Constant
Bit rate: 384 kb/s
Channel(s): 6 channels
Channel layout: L R C LFE Ls Rs
Sampling rate: 48.0 kHz
Frame rate: 31.250 FPS (1536 SPF)
Compression mode: Lossy
Stream size: 255 MiB (1%)
Title: Дубляж
Language: Russian
Service kind: Complete Main
Default: Yes
Forced: Yes

Audio #2
ID: 3
Format: AC-3
Format/Info: Audio Coding 3
Commercial name: Dolby Digital
Codec ID: A_AC3
Duration: 1 h 32 min
Bit rate mode: Constant
Bit rate: 448 kb/s
Channel(s): 6 channels
Channel layout: L R C LFE Ls Rs
Sampling rate: 48.0 kHz
Frame rate: 31.250 FPS (1536 SPF)
Compression mode: Lossy
Stream size: 297 MiB (1%)
Title: MVO [Jaskier]
Language: Russian
Service kind: Complete Main
Default: No
Forced: No

Audio #3
ID: 4
Format: AC-3
Format/Info: Audio Coding 3
Commercial name: Dolby Digital
Codec ID: A_AC3
Duration: 1 h 32 min
Bit rate mode: Constant
Bit rate: 192 kb/s
Channel(s): 2 channels
Channel layout: L R
Sampling rate: 48.0 kHz
Frame rate: 31.250 FPS (1536 SPF)
Compression mode: Lossy
Stream size: 127 MiB (1%)
Title: MVO [TVShows]
Language: Russian
Service kind: Complete Main
Default: No
Forced: No

Audio #4
ID: 5
Format: DTS XLL
Format/Info: Digital Theater Systems
Commercial name: DTS-HD Master Audio
Codec ID: A_DTS
Duration: 1 h 32 min
Bit rate mode: Variable
Bit rate: 4 812 kb/s
Channel(s): 8 channels
Channel layout: C L R LFE Lb Rb Lss Rss
Sampling rate: 48.0 kHz
Frame rate: 93.750 FPS (512 SPF)
Bit depth: 24 bits
Compression mode: Lossless
Stream size: 3.12 GiB (13%)
Title: Original
Language: English
Default: No
Forced: No

Text #1
ID: 6
Format: UTF-8
Codec ID: S_TEXT/UTF8
Codec ID/Info: UTF-8 Plain Text
Duration: 1 h 31 min
Bit rate: 1 b/s
Frame rate: 0.006 FPS
Count of elements: 32
Stream size: 929 Bytes (0%)
Title: Forced
Language: Russian
Default: Yes
Forced: Yes

Text #2
ID: 7
Format: UTF-8
Codec ID: S_TEXT/UTF8
Codec ID/Info: UTF-8 Plain Text
Duration: 1 h 31 min
Bit rate: 90 b/s
Frame rate: 0.243 FPS
Count of elements: 1341
Stream size: 60.6 KiB (0%)
Title: Full
Language: Russian
Default: No
Forced: No

Text #3
ID: 8
Format: UTF-8
Codec ID: S_TEXT/UTF8
Codec ID/Info: UTF-8 Plain Text
Duration: 1 h 32 min
Bit rate: 86 b/s
Frame rate: 0.363 FPS
Count of elements: 2022
Stream size: 59.0 KiB (0%)
Title: Full
Language: English
Default: No
Forced: No

Text #4
ID: 9
Format: UTF-8
Codec ID: S_TEXT/UTF8
Codec ID/Info: UTF-8 Plain Text
Duration: 1 h 32 min
Bit rate: 89 b/s
Frame rate: 0.368 FPS
Count of elements: 2048
Stream size: 60.8 KiB (0%)
Title: SDH
Language: English
Default: No
Forced: No

Menu
00:00:00.000: :Chapter 01
00:04:22.554: :Chapter 02
00:10:36.219: :Chapter 03
00:16:40.666: :Chapter 04
00:19:03.559: :Chapter 05
00:24:45.609: :Chapter 06
00:29:19.424: :Chapter 07
00:34:08.672: :Chapter 08
00:37:30.748: :Chapter 09
00:43:29.357: :Chapter 10
00:50:48.879: :Chapter 11
00:55:12.809: :Chapter 12
00:57:59.142: :Chapter 13
01:05:23.211: :Chapter 14
01:09:00.970: :Chapter 15
01:13:09.844: :Chapter 16
01:18:59.234: :Chapter 17
01:22:24.690: :Chapter 18
01:24:36.738: :Chapter 19
01:27:14.187: :Chapter 20




Скачать Зверь через торрент https://i4-imageban-ru.translate.goog/out/2022/11/21/1728a5f9bad63510222f33c4dd9ecc61.jpg Скачать, смотреть онлайн Зверь бесплантно в хорошем качестве Описание: Доктор Нэйт Дэниелс после смерти жены возвращается в Южную Африку, где они познакомились. Вместе с дочерьми он направляется в ... 10 10 3
Торрент: Зарегистрирован [2022-11-21 21:33] · скачан: 16 раз
Статус: √ проверено
Размер: 24.53 GB
Как cкачать? Как скачать Зверь через торрент | UTorrent

% Раздел Тема Автор DL S | L
Фильмы 2022 [DVDrip, WEB-DLRip, HDrip] (DUB, MVO) [ 1.46 GB ] Зверь / Beast | DUB | BDRip bober100 Скачать
4 | 0
Фильмы 2022 [DVDrip, WEB-DLRip, HDrip] (DUB, MVO) [ 747 MB ] Зверь / Beast | DUB | BDRip bober100 Скачать
2 | 0
Фильмы 2022 [DVDrip, WEB-DLRip, HDrip] (DUB, MVO) [ 2.02 GB ] Зверь / Beast | Jaskier | DLRip-AVC Lithuania Скачать
1 | 0
Фильмы 2022 [DVDrip, WEB-DLRip, HDrip] (DUB, MVO) [ 1.46 GB ] Зверь / Beast | Jaskier | DLRip bober100 Скачать
5 | 0
Фильмы [HD 720p, 1080p] (Хороший звук DUB, MVO) [ 13.88 GB ] Зверь / Beast | Jaskier | 1080p bober100 Скачать
4 | 0
Фильмы 2022 [DVDrip, WEB-DLRip, HDrip] (DUB, MVO) [ 1.88 GB ] Зверь / Beast | Jaskier | DLRip-AVC bober100 Скачать
2 | 0
Фильмы (WEB-DL 720p, 1080p) [ 3.34 GB ] Зверь / Beast | Jaskier | 720p bober100 Скачать
1 | 0

28-11-2019 20:33  


Отключить вcю реклaмy на сайте, в т.ч. и в плеере онлайн просмотра!

    Дорогой пользователь! Огромная просьба, поблагодарите релизера, оцените раздачу и оставьте свои комментарий, если Вы скачали Зверь через торрент бесплатно!!
    Комментировать посты могут только пользователи прошедшие не сложную регистрацию
    Показать сообщения:    


    Зверь через торрент
    Скачать бесплатно Зверь
    Зверь скачать торрент
    Зверь смотреть онлайн
    Cкачать фильм Зверь бесплатно
    Зверь скачать торрент в хорошем качестве
    Зверь смотреть онлайн бесплатно в хорошем качестве
    Вы не можете начинать темы
    Вы не можете отвечать на сообщения
    Вы не можете редактировать свои сообщения
    Вы не можете удалять свои сообщения
    Вы не можете голосовать в опросах
    Вы не можете прикреплять файлы к сообщениям
    Вы можете скачивать файлы
    Зверь / Beast [2022, Ужасы, триллер, драма, приключения, BD Remux 1080p] Дубляж [Bravo Records Georgia] +2xMVO [Jaskier, TVShows] смотреть онлайн, скачать торрент picoco.icu