Достать ножи: Стеклянная луковица

MVO

Добыча

Дубляж

Уэнсдэй

1 сезон

Тор

Дубляж

13 клиническая

1 сезон

Жестокая ночь

MVO

Одни из нас

1 сезон

Deluxe

pack

Рекомендуем

30

Пиратка

ВАЖНО

ВАЖНО

Ghostwire

Пиратка

jed

RePack

nioh2

RePack

RDR2

RePack

NEED FOR SPEED™ PAYBACK

RePack

скачать торрент

Кинопоиск HD

Острые козырьки 6 сезон

6 сезон

FAR CRY 6

RePack

скачать торрент

Лицензия

скачать торрент

MVO

1

1 сезон

скачать торрент

1 сезон

скачать торрент

Лицензия

  

Чудо / The Wonder (Себастьян Лелио) [2022, Триллер, драма, детектив, WEB-DLRip-AVC] MVO [Jaskier]

Чудо через торрент pb.wtf

Раздают: 6 [ 7 KB/s ]
Размер: 1.91 GB | Добавлен: 2 мес. 12 д. назад | Торрент скачан:300 раз
Смотреть онлайн | Скачать | Поддержите нас   

24-11-2022 21:50 Чудо Скачать торрент  

Чудо
The Wonder

Год выпуска: 2022
Страна: Ирландия, Великобритания, США
Выпущено: Element Pictures, Element, Fís Éireann / Screen Ireland
Жанр: Триллер, драма, детектив
Продолжительность: 01:49:42
Перевод: Профессиональный (многоголосый) | Jaskier
Субтитры: Русские, английские (Full, SDH)

Режиссер: Себастьян Лелио

rating

В ролях: Флоренс Пью, Нив Алгар, Киаран Хайндс, Том Бёрк, Тоби Джонс, Элейн Кэссиди, Дэвид Уилмот, Дермот Краули, Брайан Ф. О'Бирн, Кайла Лорд Кэссиди

Описание: 1862 год. Медсестра Либ Райт приезжает в ирландское поселение, чтобы обследовать 11-летнюю Анну, которая уже несколько месяцев обходится без еды, но чувствует себя при этом хорошо. Девочка говорит, что ей помогает манна небесная, а Либ пытается разобраться, что на самом деле происходит с пациенткой.

Качество: WEB-DLRip-AVC
Формат: MKV

Видео: AVC, 1032x430 (2,40:1), 1720 kbps, 24 fps
Аудио#1: 48 kHz, AC3, 5.1, 384 kbps | RUS
Аудио#2: 48 kHz, AC3, 5.1, 384 kbps | ENG
скриншот  скриншот  скриншот  скриншот  скриншот  скриншот  

General
Unique ID: 233925767966522344955550539330928359781 (0xAFFC76D129555F532F2F4694D9E9B965)
Complete name: E:\The.Wonder.2022.WEB-DLRip.x264.ExKinoRay.mkv
Format: Matroska
Format version: Version 4
File size: 1.91 GiB
Duration: 1 h 49 min
Overall bit rate: 2 489 kb/s
Movie name: The Wonder (2022)
Encoded date: UTC 2022-11-23 02:13:02
Writing application: mkvmerge v62.0.0 ('Apollo') 64-bit
Writing library: libebml v1.4.2 + libmatroska v1.6.4

Video
ID: 1
Format: AVC
Format/Info: Advanced Video Codec
Format profile: [email protected]
Format settings: CABAC / 12 Ref Frames
Format settings, CABAC: Yes
Format settings, Reference fra: 12 frames
Codec ID: V_MPEG4/ISO/AVC
Duration: 1 h 49 min
Bit rate: 1 720 kb/s
Width: 1 032 pixels
Height: 430 pixels
Display aspect ratio: 2.40:1
Frame rate mode: Constant
Frame rate: 24.000 FPS
Color space: YUV
Chroma subsampling: 4:2:0
Bit depth: 8 bits
Scan type: Progressive
Bits/(Pixel*Frame): 0.161
Stream size: 1.32 GiB (69%)
Title: potroks
Writing library: x264 core 163
Encoding settings: cabac=1 / ref=12 / deblock=1:-2:-2 / analyse=0x3:0x133 / me=umh / subme=11 / psy=1 / psy_rd=1.00:0.00 / mixed_ref=1 / me_range=48 / chroma_me=0 / trellis=2 / 8x8dct=1 / cqm=0 / deadzone=21,11 / fast_pskip=0 / chroma_qp_offset=-2 / threads=19 / lookahead_threads=3 / sliced_threads=0 / nr=0 / decimate=1 / interlaced=0 / bluray_compat=0 / constrained_intra=0 / bframes=10 / b_pyramid=2 / b_adapt=2 / b_bias=0 / direct=0 / weightb=1 / open_gop=0 / weightp=2 / keyint=250 / keyint_min=23 / scenecut=40 / intra_refresh=0 / rc_lookahead=100 / rc=2pass / mbtree=0 / bitrate=1720 / ratetol=1.0 / qcomp=0.70 / qpmin=0 / qpmax=69 / qpstep=5 / cplxblur=20.0 / qblur=0.5 / vbv_maxrate=50000 / vbv_bufsize=62500 / nal_hrd=none / filler=0 / ip_ratio=1.40 / pb_ratio=1.30 / aq=1:0.80
Language: English
Default: Yes
Forced: No

Audio #1
ID: 2
Format: AC-3
Format/Info: Audio Coding 3
Commercial name: Dolby Digital
Codec ID: A_AC3
Duration: 1 h 49 min
Bit rate mode: Constant
Bit rate: 384 kb/s
Channel(s): 6 channels
Channel layout: L R C LFE Ls Rs
Sampling rate: 48.0 kHz
Frame rate: 31.250 FPS (1536 SPF)
Bit depth: 16 bits
Compression mode: Lossy
Stream size: 301 MiB (15%)
Title: MVO | DD 5.1 @ 384 kbps - Jaskier
Language: Russian
Service kind: Complete Main
Default: Yes
Forced: No

Audio #2
ID: 3
Format: AC-3
Format/Info: Audio Coding 3
Commercial name: Dolby Digital
Codec ID: A_AC3
Duration: 1 h 49 min
Bit rate mode: Constant
Bit rate: 384 kb/s
Channel(s): 6 channels
Channel layout: L R C LFE Ls Rs
Sampling rate: 48.0 kHz
Frame rate: 31.250 FPS (1536 SPF)
Bit depth: 16 bits
Compression mode: Lossy
Stream size: 301 MiB (15%)
Title: Original | DD 5.1 @ 384 kbps
Language: English
Service kind: Complete Main
Default: No
Forced: No

Text #1
ID: 4
Format: UTF-8
Codec ID: S_TEXT/UTF8
Codec ID/Info: UTF-8 Plain Text
Duration: 1 h 47 min
Bit rate: 54 b/s
Frame rate: 0.151 FPS
Count of elements: 970
Stream size: 42.5 KiB (0%)
Title: Full
Language: Russian
Default: No
Forced: No

Text #2
ID: 5
Format: UTF-8
Codec ID: S_TEXT/UTF8
Codec ID/Info: UTF-8 Plain Text
Duration: 1 h 41 min
Bit rate: 36 b/s
Frame rate: 0.163 FPS
Count of elements: 993
Stream size: 27.0 KiB (0%)
Title: Full
Language: English
Default: No
Forced: No

Text #3
ID: 6
Format: UTF-8
Codec ID: S_TEXT/UTF8
Codec ID/Info: UTF-8 Plain Text
Duration: 1 h 42 min
Bit rate: 47 b/s
Frame rate: 0.209 FPS
Count of elements: 1279
Stream size: 35.7 KiB (0%)
Title: SDH
Language: English
Default: No
Forced: No




Скачать Чудо через торрент https://i120.fastpic.org/big/2022/1122/64/1b2bf2cfb925b4409f6b19aefba5d964.jpg Скачать, смотреть онлайн Чудо бесплантно в хорошем качестве Описание: 1862 год. Медсестра Либ Райт приезжает в ирландское поселение, чтобы обследовать 11-летнюю Анну, которая уже несколько месяцев ... 10 10 9
Торрент: Зарегистрирован [2022-11-24 21:50] · скачан: 300 раз
Статус: √ проверено
Размер: 1.91 GB
Как cкачать? Как скачать Чудо через торрент | UTorrent

% Раздел Тема Автор DL S | L
Фильмы (WEB-DL 720p, 1080p) [ 6.55 GB ] Чудо / The Wonder | Jaskier | 1080p bober100 Скачать
9 | 0

28-11-2019 20:33  


Отключить вcю реклaмy на сайте, в т.ч. и в плеере онлайн просмотра!

    Дорогой пользователь! Огромная просьба, поблагодарите релизера, оцените раздачу и оставьте свои комментарий, если Вы скачали Чудо через торрент бесплатно!!
    Комментировать посты могут только пользователи прошедшие не сложную регистрацию
    Показать сообщения:    


    Чудо через торрент
    Скачать бесплатно Чудо
    Чудо скачать торрент
    Чудо смотреть онлайн
    Cкачать фильм Чудо бесплатно
    Чудо скачать торрент в хорошем качестве
    Чудо смотреть онлайн бесплатно в хорошем качестве
    Вы можете начинать темы
    Вы можете отвечать на сообщения
    Вы не можете редактировать свои сообщения
    Вы не можете удалять свои сообщения
    Вы не можете голосовать в опросах
    Вы не можете прикреплять файлы к сообщениям
    Вы можете скачивать файлы
    Чудо / The Wonder [2022, Триллер, драма, детектив, WEB-DLRip-AVC] MVO [Jaskier] смотреть онлайн, скачать торрент picoco.icu