Достать ножи: Стеклянная луковица

MVO

Добыча

Дубляж

Уэнсдэй

1 сезон

Тор

Дубляж

13 клиническая

1 сезон

Жестокая ночь

MVO

Одни из нас

1 сезон

Deluxe

pack

Рекомендуем

30

Пиратка

ВАЖНО

ВАЖНО

Ghostwire

Пиратка

jed

RePack

nioh2

RePack

RDR2

RePack

NEED FOR SPEED™ PAYBACK

RePack

скачать торрент

Кинопоиск HD

Острые козырьки 6 сезон

6 сезон

FAR CRY 6

RePack

скачать торрент

Лицензия

скачать торрент

MVO

1

1 сезон

скачать торрент

1 сезон

скачать торрент

Лицензия

  

Автостопом на автобусе / Последний автобус / The Last Bus (Гиллис МакКиннон) [2021 г., драма, BDRip 1080p] Дубляж | Paragraph Media От Generalfilm

Автостопом на автобусе через торрент pb.wtf

Размер: 5.96 GB | Добавлен: 2 мес. 12 д. назад | Торрент скачан:33 раза
Смотреть онлайн | Скачать | Поддержите нас   

25-11-2022 06:20 Автостопом на автобусе Скачать торрент  

Автостопом на автобусе / Последний автобус / The Last Bus
Информация о фильме

Год выпуска: 2021

Страна: Великобритания, ОАЭ

Студия:Head Gear Films, Hurricane Films, Kreo Films FZ, Metrol Technology

Жанр: драма
Перевод: Дублированный | Paragraph Media

Субтитры: Отсутствуют

Продолжительность: 01:25:49
Режиссер: Гиллис МакКиннон

В ролях: Тимоти Сполл, Филлис Логан, Натали Митсон, Бен Юинг, Патриша Пантера, Стивен Даффи, Саския Эшдаун, Скотт Кэмпбелл, Энн Кидд, Айла Гэвин
Описание:
После смерти жены Том отправляется на другой конец страны, пользуясь только местными бесплатными автобусами. Его маршрут глубоко символичен: ведь именно таким образом много лет назад они с женой приехали в их нынешний дом. Во время этого ностальгического путешествия Том становится настоящей знаменитостью и неожиданно для себя самого обретает будущее.
Рейтинг:
rating
Качество: BDRip 1080p
Формат: MKV
Видео: MPEG-4 AVC, 1920x800 (2.40:1), 24.000 fps, 9 500 kb/s (0.258 bit/pixel)
Аудио: русский AC3, 48.0 kHz, 5.1, 448 Kbps, CBR Paragraph Media
Навигация по главам: есть

Релиз от:
General
Unique ID : 238757749793056359449612976893956541225 (0xB39F11EA15A2E04097BB1945AC914B29)
Complete name : C:\The.Last.Bus.2021.BDRip-1080p.Rip.by.White Smoke.R.G.Generalfilm.mkv
Format : Matroska
Format version : Version 4
File size : 5.96 GiB
Duration : 1 h 25 min
Overall bit rate : 9 942 kb/s
Movie name : The.Last.Bus.2021.BDRip-1080p.Rip.by.White Smoke.R.G.Generalfilm.mkv
Encoded date : UTC 2022-11-24 19:04:04
Writing application : mkvmerge v6.8.0 ('Theme for Great Cities') 64bit built on Mar 2 2014 21:34:26
Writing library : libebml v1.3.0 + libmatroska v1.4.1

Video
ID : 1
Format : AVC
Format/Info : Advanced Video Codec
Format profile : [email protected]
Format settings : CABAC / 4 Ref Frames
Format settings, CABAC : Yes
Format settings, Reference : 4 frames
Codec ID : V_MPEG4/ISO/AVC
Duration : 1 h 25 min
Bit rate : 9 500 kb/s
Width : 1 920 pixels
Height : 800 pixels
Display aspect ratio : 2.40:1
Frame rate mode : Constant
Frame rate : 24.000 FPS
Color space : YUV
Chroma subsampling : 4:2:0
Bit depth : 8 bits
Scan type : Progressive
Bits/(Pixel*Frame) : 0.258
Stream size : 5.57 GiB (94%)
Writing library : x264 core 148 r2638 7599210
Encoding settings : cabac=1 / ref=4 / deblock=1:-2:-1 / analyse=0x3:0x133 / me=umh / subme=10 / psy=1 / psy_rd=1.00:0.15 / mixed_ref=1 / me_range=32 / chroma_me=0 / trellis=2 / 8x8dct=1 / cqm=0 / deadzone=21,11 / fast_pskip=0 / chroma_qp_offset=-5 / threads=25 / lookahead_threads=6 / sliced_threads=0 / nr=0 / decimate=1 / interlaced=0 / bluray_compat=0 / constrained_intra=0 / bframes=10 / b_pyramid=2 / b_adapt=2 / b_bias=0 / direct=1 / weightb=1 / open_gop=0 / weightp=2 / keyint=240 / keyint_min=24 / scenecut=40 / intra_refresh=0 / rc_lookahead=40 / rc=2pass / mbtree=0 / bitrate=9500 / ratetol=1.0 / qcomp=0.65 / qpmin=0 / qpmax=69 / qpstep=4 / cplxblur=20.0 / qblur=0.5 / vbv_maxrate=50000 / vbv_bufsize=65500 / nal_hrd=none / filler=0 / ip_ratio=1.40 / pb_ratio=1.30 / aq=1:1.00
Language : English
Default : Yes
Forced : No

Audio
ID : 2
Format : AC-3
Format/Info : Audio Coding 3
Commercial name : Dolby Digital
Codec ID : A_AC3
Duration : 1 h 25 min
Bit rate mode : Constant
Bit rate : 448 kb/s
Channel(s) : 6 channels
Channel layout : L R C LFE Ls Rs
Sampling rate : 48.0 kHz
Frame rate : 31.250 FPS (1536 SPF)
Compression mode : Lossy
Stream size : 275 MiB (5%)
Title : Дубляж Paragraph Media
Language : Russian
Service kind : Complete Main
Default : Yes
Forced : Yes

Menu
00:00:00.000 : en:Chapter 01
00:04:24.541 : en:Chapter 02
00:09:55.375 : en:Chapter 03
00:14:59.791 : en:Chapter 04
00:20:53.625 : en:Chapter 05
00:26:14.666 : en:Chapter 06
00:31:50.791 : en:Chapter 07
00:37:23.416 : en:Chapter 08
00:41:44.250 : en:Chapter 09
00:49:52.500 : en:Chapter 10
00:53:57.166 : en:Chapter 11
00:58:35.083 : en:Chapter 12
01:02:44.208 : en:Chapter 13
01:09:26.750 : en:Chapter 14
01:16:27.666 : en:Chapter 15
01:22:22.458 : en:Chapter 16
скриншот   скриншот   скриншот   скриншот   скриншот   скриншот  



Скачать Автостопом на автобусе через торрент https://i7-imageban-ru.translate.goog/out/2022/11/25/9b774342c2791bf58b034c9fd3b48f9a.jpg Скачать, смотреть онлайн Автостопом на автобусе бесплантно в хорошем качестве Описание: После смерти жены Том отправляется на другой конец страны, пользуясь только местными бесплатными автобусами. Его маршрут глубоко ... 10 10 1
Info! Золотая раздача, скачанное не засчитывается.
Торрент: Зарегистрирован [2022-11-25 06:20] · скачан: 33 раз
Статус: √ проверено
Размер: 5.96 GB
Как cкачать? Как скачать Автостопом на автобусе через торрент | UTorrent

28-11-2019 20:33  


Отключить вcю реклaмy на сайте, в т.ч. и в плеере онлайн просмотра!

    Дорогой пользователь! Огромная просьба, поблагодарите релизера, оцените раздачу и оставьте свои комментарий, если Вы скачали Автостопом на автобусе через торрент бесплатно!!
    Комментировать посты могут только пользователи прошедшие не сложную регистрацию
    Показать сообщения:    


    Автостопом на автобусе через торрент
    Скачать бесплатно Автостопом на автобусе
    Автостопом на автобусе скачать торрент
    Автостопом на автобусе смотреть онлайн
    Cкачать фильм Автостопом на автобусе бесплатно
    Автостопом на автобусе скачать торрент в хорошем качестве
    Автостопом на автобусе смотреть онлайн бесплатно в хорошем качестве
    Вы не можете начинать темы
    Вы не можете отвечать на сообщения
    Вы не можете редактировать свои сообщения
    Вы не можете удалять свои сообщения
    Вы не можете голосовать в опросах
    Вы не можете прикреплять файлы к сообщениям
    Вы можете скачивать файлы
    Автостопом на автобусе / Последний автобус / The Last Bus [2021 г., драма, BDRip 1080p] Дубляж | Paragraph Media От Generalfilm смотреть онлайн, скачать торрент picoco.icu