Достать ножи: Стеклянная луковица

MVO

Добыча

Дубляж

Уэнсдэй

1 сезон

Тор

Дубляж

13 клиническая

1 сезон

Жестокая ночь

MVO

Одни из нас

1 сезон

Deluxe

pack

Рекомендуем

30

Пиратка

ВАЖНО

ВАЖНО

Ghostwire

Пиратка

jed

RePack

nioh2

RePack

RDR2

RePack

NEED FOR SPEED™ PAYBACK

RePack

скачать торрент

Кинопоиск HD

Острые козырьки 6 сезон

6 сезон

FAR CRY 6

RePack

скачать торрент

Лицензия

скачать торрент

MVO

1

1 сезон

скачать торрент

1 сезон

скачать торрент

Лицензия

  

Чёрный Адам / Black Adam (Жауме Кольет-Серра) [2022, Фантастика, фэнтези, боевик, приключения, WEB-DLRip-AVC] Дубляж [Bravo Records Georgia]

Чёрный Адам через торрент pb.wtf

Раздают: 56 [ 62 KB/s ]
Размер: 2.41 GB | Добавлен: 2 мес. 11 д. назад | Торрент скачан:1359 раз
Смотреть онлайн | Скачать | Поддержите нас   

26-11-2022 08:34 Чёрный Адам Скачать торрент  

Чёрный Адам
Black Adam

Год выпуска: 2022
Страна: США, Канада, Новая Зеландия, Венгрия
Выпущено: 7 Bucks Productions, DC Entertainment, Flynn Picture Company, Motion Picture Foundation of Hungary, New Line Cinema, New Zealand Film Commission, Québec Production Services Tax Credit, Warner Bros.
Жанр: Фантастика, фэнтези, боевик, приключения
Продолжительность: 02:04:49
Перевод: Дублированный | Bravo Records Georgia
Субтитры: Русские (Forced/надписи, Full), английские (Forced, Full, SDH)

Режиссер: Жауме Кольет-Серра

rating

В ролях: Дуэйн Джонсон, Сара Шахи, Пирс Броснан, Ной Сентинео, Элдис Ходж, Марван Кензари, Куинтесса Суинделл, Виола Дэвис, Джозеф Гатт, Оделя Алеви, Ули Латукефу, Патрик Сабонгуй, Дерек Руссо

Описание: 5000 лет назад Чёрный Адам был наделен силами египетских богов и заключён в тюрьму. Теперь он освобождается из своей усыпальницы и готовится явить миру уникальный подход к борьбе за справедливость.

Качество: WEB-DLRip-AVC
Формат: MKV

Видео: MPEG-4 AVC, 1008x422 (2, 40:1), 1989 kbps, 23.976 fps
Аудио: 48 kHz, AC3, 5.1, 384 kbps | RUS | Bravo Records Georgia
Аудио: 48 kHz, AC3, 5.1, 384 kbps | ENG |
скриншот  скриншот  скриншот  скриншот  скриншот  скриншот  

General
Unique ID: 179357976435855653336905838919930994150 (0x86EF16FA6592952F0739CC904695DDE6)
Complete name: E:\Black.Adam.2022.DUAL.WEB-DLRip.x264.ExKinoRay.mkv
Format: Matroska
Format version: Version 4
File size: 2.41 GiB
Duration: 2 h 4 min
Overall bit rate: 2 759 kb/s
Movie name: Black Adam (2022)
Encoded date: UTC 2022-11-26 07:22:52
Writing application: mkvmerge v62.0.0 ('Apollo') 64-bit
Writing library: libebml v1.4.2 + libmatroska v1.6.4

Video
ID: 1
Format: AVC
Format/Info: Advanced Video Codec
Format profile: [email protected]
Format settings: CABAC / 12 Ref Frames
Format settings, CABAC: Yes
Format settings, Reference fra: 12 frames
Codec ID: V_MPEG4/ISO/AVC
Duration: 2 h 4 min
Bit rate: 1 989 kb/s
Width: 1 008 pixels
Height: 422 pixels
Display aspect ratio: 2.40:1
Frame rate mode: Constant
Frame rate: 23.976 (24000/1001) FPS
Color space: YUV
Chroma subsampling: 4:2:0
Bit depth: 8 bits
Scan type: Progressive
Bits/(Pixel*Frame): 0.195
Stream size: 1.69 GiB (70%)
Title: potroks
Writing library: x264 core 163
Encoding settings: cabac=1 / ref=12 / deblock=1:-2:-2 / analyse=0x3:0x133 / me=umh / subme=11 / psy=1 / psy_rd=1.00:0.05 / mixed_ref=1 / me_range=48 / chroma_me=0 / trellis=2 / 8x8dct=1 / cqm=0 / deadzone=21, 11 / fast_pskip=0 / chroma_qp_offset=-3 / threads=19 / lookahead_threads=3 / sliced_threads=0 / nr=0 / decimate=1 / interlaced=0 / bluray_compat=0 / constrained_intra=0 / bframes=10 / b_pyramid=2 / b_adapt=2 / b_bias=0 / direct=0 / weightb=1 / open_gop=0 / weightp=2 / keyint=250 / keyint_min=23 / scenecut=40 / intra_refresh=0 / rc_lookahead=100 / rc=2pass / mbtree=1 / bitrate=1989 / ratetol=1.0 / qcomp=0.70 / qpmin=0 / qpmax=69 / qpstep=5 / cplxblur=20.0 / qblur=0.5 / vbv_maxrate=50000 / vbv_bufsize=62500 / nal_hrd=none / filler=0 / ip_ratio=1.35 / aq=2:0.80
Language: English
Default: Yes
Forced: No
Color range: Limited
Color primaries: BT.709
Transfer characteristics: BT.709
Matrix coefficients: BT.709

Audio #1
ID: 2
Format: AC-3
Format/Info: Audio Coding 3
Commercial name: Dolby Digital
Codec ID: A_AC3
Duration: 2 h 4 min
Bit rate mode: Constant
Bit rate: 384 kb/s
Channel(s): 6 channels
Channel layout: L R C LFE Ls Rs
Sampling rate: 48.0 kHz
Frame rate: 31.250 FPS (1536 SPF)
Compression mode: Lossy
Stream size: 343 MiB (14%)
Title: Дубляж | DD 5.1 @ 384 kbps - BRG
Language: Russian
Service kind: Complete Main
Default: Yes
Forced: No

Audio #2
ID: 3
Format: AC-3
Format/Info: Audio Coding 3
Commercial name: Dolby Digital
Codec ID: A_AC3
Duration: 2 h 4 min
Bit rate mode: Constant
Bit rate: 384 kb/s
Channel(s): 6 channels
Channel layout: L R C LFE Ls Rs
Sampling rate: 48.0 kHz
Frame rate: 31.250 FPS (1536 SPF)
Bit depth: 16 bits
Compression mode: Lossy
Stream size: 343 MiB (14%)
Title: Original
Language: English
Service kind: Complete Main
Default: No
Forced: No

Text #1
ID: 4
Format: UTF-8
Codec ID: S_TEXT/UTF8
Codec ID/Info: UTF-8 Plain Text
Title: Forced
Language: Russian
Default: No
Forced: Yes

Text #2
ID: 5
Format: UTF-8
Codec ID: S_TEXT/UTF8
Codec ID/Info: UTF-8 Plain Text
Title: Full
Language: Russian
Default: No
Forced: No

Text #3
ID: 6
Format: UTF-8
Codec ID: S_TEXT/UTF8
Codec ID/Info: UTF-8 Plain Text
Title: Forced
Language: English
Default: No
Forced: No

Text #4
ID: 7
Format: UTF-8
Codec ID: S_TEXT/UTF8
Codec ID/Info: UTF-8 Plain Text
Title: Full
Language: English
Default: No
Forced: No

Text #5
ID: 8
Format: UTF-8
Codec ID: S_TEXT/UTF8
Codec ID/Info: UTF-8 Plain Text
Title: SDH
Language: English
Default: No
Forced: No

Menu
00:00:00.000: en:Chapter 01
00:10:22.000: en:Chapter 02
00:19:56.000: en:Chapter 03
00:29:28.000: en:Chapter 04
00:38:32.000: en:Chapter 05
00:50:39.000: en:Chapter 06
01:00:17.000: en:Chapter 07
01:09:40.000: en:Chapter 08
01:19:31.000: en:Chapter 09
01:29:06.000: en:Chapter 10
01:40:14.000: en:Chapter 11
01:49:34.000: en:Chapter 12
01:53:06.000: en:Chapter 13




Скачать Чёрный Адам через торрент https://i7-imageban-ru.translate.goog/out/2022/11/22/f40526fb3993eeaca8254b0dab5d06a8.jpg Скачать, смотреть онлайн Чёрный Адам бесплантно в хорошем качестве Описание: 5000 лет назад Чёрный Адам был наделен силами египетских богов и заключён в тюрьму. Теперь он освобождается из своей усыпальницы ... 9.3 10 24
Info! Золотая раздача, скачанное не засчитывается.
Торрент: Зарегистрирован [2022-11-26 08:34] · скачан: 1 359 раз
Статус: √ проверено
Размер: 2.41 GB
Как cкачать? Как скачать Чёрный Адам через торрент | UTorrent

% Раздел Тема Автор DL S | L
Фильмы (WEB-DL 720p, 1080p) [ 8.93 GB ] Чёрный Адам / Black Adam | Jaskier | 1080p bober100 Скачать
38 | 1
Фильмы [HD 720p, 1080p] (Хороший звук DUB, MVO) [ 7.27 GB ] Чёрный Адам / Black Adam | DUB | 720p bober100 Скачать
13 | 0
Фильмы [HD 720p, 1080p] (Хороший звук DUB, MVO) [ 12.74 GB ] Чёрный Адам / Black Adam | DUB | 1080p bober100 Скачать
12 | 0
T Фильмы 2022-2023 [DVDrip, WEB-DLRip, HDrip] (DUB, MVO) [ 1.46 GB ] Чёрный Адам / Black Adam | NewComers | WEBRip bober100 Скачать
45 | 0
Фильмы (Blu-ray, BD-Remux, HDDVD) [ 24.12 GB ] Чёрный Адам / Black Adam | DUB | BD Remux 1080p bober100 Скачать
7 | 1
Фильмы 2022-2023 [DVDrip, WEB-DLRip, HDrip] (DUB, MVO) [ 2.18 GB ] Чёрный Адам / Black Adam | DUB | BDRip bober100 Скачать
5 | 1
Фильмы 2022-2023 [DVDrip, WEB-DLRip, HDrip] (DUB, MVO) [ 1.46 GB ] Чёрный Адам / Black Adam | DUB | BDRip bober100 Скачать
13 | 0

28-11-2019 20:33  


Отключить вcю реклaмy на сайте, в т.ч. и в плеере онлайн просмотра!

    Дорогой пользователь! Огромная просьба, поблагодарите релизера, оцените раздачу и оставьте свои комментарий, если Вы скачали Чёрный Адам через торрент бесплатно!!
    Комментировать посты могут только пользователи прошедшие не сложную регистрацию
    Показать сообщения:    


    Чёрный Адам через торрент
    Скачать бесплатно Чёрный Адам
    Чёрный Адам скачать торрент
    Чёрный Адам смотреть онлайн
    Cкачать фильм Чёрный Адам бесплатно
    Чёрный Адам скачать торрент в хорошем качестве
    Чёрный Адам смотреть онлайн бесплатно в хорошем качестве
    Вы можете начинать темы
    Вы можете отвечать на сообщения
    Вы не можете редактировать свои сообщения
    Вы не можете удалять свои сообщения
    Вы не можете голосовать в опросах
    Вы не можете прикреплять файлы к сообщениям
    Вы можете скачивать файлы
    Чёрный Адам / Black Adam [2022, Фантастика, фэнтези, боевик, приключения, WEB-DLRip-AVC] Дубляж [Bravo Records Georgia] смотреть онлайн, скачать торрент picoco.icu