Достать ножи: Стеклянная луковица

MVO

Добыча

Дубляж

Уэнсдэй

1 сезон

Тор

Дубляж

13 клиническая

1 сезон

Жестокая ночь

MVO

Одни из нас

1 сезон

Deluxe

pack

Рекомендуем

30

Пиратка

ВАЖНО

ВАЖНО

Ghostwire

Пиратка

jed

RePack

nioh2

RePack

RDR2

RePack

NEED FOR SPEED™ PAYBACK

RePack

скачать торрент

Кинопоиск HD

Острые козырьки 6 сезон

6 сезон

FAR CRY 6

RePack

скачать торрент

Лицензия

скачать торрент

MVO

1

1 сезон

скачать торрент

1 сезон

скачать торрент

Лицензия

  

The Private Life of Sophie Evans / Личная жизнь Софи Эванс (Antonio Adamo, Max Bellocchio) [2002 г., Adult, DVD9] Rus

The Private Life of Sophie Evans через торрент pb.wtf

Размер: 15.16 GB | Добавлен: 2 мес. 11 д. назад | Торрент скачан:46 раз
| Скачать | Поддержите нас   

26-11-2022 15:00 The Private Life of Sophie Evans Скачать торрент  

The Private Life of Sophie Evans / Личная жизнь Софи Эванс
Год выпуска: 2002
Страна: Sweden
Жанр: Adult
Продолжительность: 02:50:00

Режиссер: Antonio Adamo, Max Bellocchio

rating

В ролях: Sophie Evans, Monique Covet, Philippe Dean, Choky Ice, Nick Lang, Nikol, Ramon Nomar, Blond Panni, David Perry, Alberto Rey, Toni Ribas, Franco Roccaforte, Bob Terminator

Качество: DVD9
Формат: DVD Video
Видео кодек: MPEG2
Аудио кодек: AC3
Видео: 720x480, MPEG 2, 4256 Кбит/сек
Аудио#1: Русский, AC3, 2 ch, 192 Кбит/сек
Аудио#2: Английский, AC3, 2 ch, 192 Кбит/сек
Видео
Идентификатор : 224 (0xE0)
Формат : MPEG Video
Версия формата : Version 2
Профиль формата : [email protected]
Настройки формата : CustomMatrix / BVOP
Параметр BVOP формата : Да
Параметр матрицы формата : Выборочная
Параметр GOP формата : Variable
Продолжительность : 13 м. 31 с.
Вид битрейта : Постоянный
Битрейт : 9224 Кбит/сек
Ширина : 720 пикселей
Высота : 480 пикселей
Соотношение сторон : 4:3
Частота кадров : 29,970 (30000/1001) кадров/сек
Стандарт вещания : NTSC
Цветовое пространство : YUV
Субдискретизация насыщенности : 4:2:0
Битовая глубина : 8 бит
Метод сжатия : С потерями
Бит/(Пиксели*Кадры) : 0.891
Размер потока : 892 Мбайт (87%)

Аудио #1
Идентификатор : 189 (0xBD)-128 (0x80)
Формат : AC-3
Формат/Информация : Audio Coding 3
Коммерческое название : Dolby Digital
Режим смешивания : DVD-Video
Продолжительность : 13 м. 31 с.
Вид битрейта : Постоянный
Битрейт : 192 Кбит/сек
Каналы : 2 канала
ChannelLayout : L R
Частота : 48,0 КГц
Частота кадров : 31,250 кадров/сек (1536 SPF)
Метод сжатия : С потерями
Задержка видео : -49 мс.
Размер потока : 18,6 Мбайт (2%)
ServiceKind/String : Complete Main

Аудио #2
Идентификатор : 189 (0xBD)-129 (0x81)
Формат : AC-3
Формат/Информация : Audio Coding 3
Коммерческое название : Dolby Digital
Режим смешивания : DVD-Video
Продолжительность : 4 с. 768 мс.
Вид битрейта : Постоянный
Битрейт : 192 Кбит/сек
Каналы : 2 канала
ChannelLayout : L R
Частота : 48,0 КГц
Частота кадров : 31,250 кадров/сек (1536 SPF)
Метод сжатия : С потерями
Размер потока : 112 Кбайт (0%)
ServiceKind/String : Complete Main

Аудио #3
Идентификатор : 189 (0xBD)-130 (0x82)
Формат : AC-3
Формат/Информация : Audio Coding 3
Коммерческое название : Dolby Digital
Режим смешивания : DVD-Video
Продолжительность : 4 с. 768 мс.
Вид битрейта : Постоянный
Битрейт : 192 Кбит/сек
Каналы : 2 канала
ChannelLayout : L R
Частота : 48,0 КГц
Частота кадров : 31,250 кадров/сек (1536 SPF)
Метод сжатия : С потерями
Размер потока : 112 Кбайт (0%)
ServiceKind/String : Complete Main

Аудио #4
Идентификатор : 189 (0xBD)-131 (0x83)
Формат : AC-3
Формат/Информация : Audio Coding 3
Коммерческое название : Dolby Digital
Режим смешивания : DVD-Video
Продолжительность : 4 с. 768 мс.
Вид битрейта : Постоянный
Битрейт : 192 Кбит/сек
Каналы : 2 канала
ChannelLayout : L R
Частота : 48,0 КГц
Частота кадров : 31,250 кадров/сек (1536 SPF)
Метод сжатия : С потерями
Размер потока : 112 Кбайт (0%)
ServiceKind/String : Complete Main

Аудио #5
Идентификатор : 189 (0xBD)-132 (0x84)
Формат : AC-3
Формат/Информация : Audio Coding 3
Коммерческое название : Dolby Digital
Режим смешивания : DVD-Video
Продолжительность : 4 с. 768 мс.
Вид битрейта : Постоянный
Битрейт : 192 Кбит/сек
Каналы : 2 канала
ChannelLayout : L R
Частота : 48,0 КГц
Частота кадров : 31,250 кадров/сек (1536 SPF)
Метод сжатия : С потерями
Размер потока : 112 Кбайт (0%)
ServiceKind/String : Complete Main

Аудио #6
Идентификатор : 189 (0xBD)-133 (0x85)
Формат : AC-3
Формат/Информация : Audio Coding 3
Коммерческое название : Dolby Digital
Режим смешивания : DVD-Video
Продолжительность : 4 с. 864 мс.
Вид битрейта : Постоянный
Битрейт : 192 Кбит/сек
Каналы : 2 канала
ChannelLayout : L R
Частота : 48,0 КГц
Частота кадров : 31,250 кадров/сек (1536 SPF)
Метод сжатия : С потерями
Размер потока : 114 Кбайт (0%)
ServiceKind/String : Complete Main




pack Скачать The Private Life of Sophie Evans через торрент https://i120.fastpic.org/big/2022/1126/cf/8915936f80cc1b4de93c911f55dc1acf.jpg Скачать, смотреть онлайн The Private Life of Sophie Evans бесплантно в хорошем качестве В ролях: Sophie Evans, Monique Covet, Philippe Dean, Choky Ice, Nick Lang, Nikol, Ramon Nomar, Blond Panni, David Perry, Alberto Rey, Toni ... 10 10 3
Info! Золотая раздача, скачанное не засчитывается.
Торрент: Зарегистрирован [2022-11-26 15:00] · скачан: 46 раз
Статус: √ проверено
Размер: 15.16 GB
Как cкачать? Как скачать The Private Life of Sophie Evans через торрент | UTorrent

28-11-2019 20:33  


Отключить вcю реклaмy на сайте, в т.ч. и в плеере онлайн просмотра!

    Дорогой пользователь! Огромная просьба, поблагодарите релизера, оцените раздачу и оставьте свои комментарий, если Вы скачали The Private Life of Sophie Evans через торрент бесплатно!!
    Комментировать посты могут только пользователи прошедшие не сложную регистрацию
    Показать сообщения:    


    The Private Life of Sophie Evans через торрент
    Скачать бесплатно The Private Life of Sophie Evans
    The Private Life of Sophie Evans скачать торрент
    The Private Life of Sophie Evans смотреть онлайн
    Cкачать фильм The Private Life of Sophie Evans бесплатно
    The Private Life of Sophie Evans скачать торрент в хорошем качестве
    The Private Life of Sophie Evans смотреть онлайн бесплатно в хорошем качестве
    Вы не можете начинать темы
    Вы не можете отвечать на сообщения
    Вы не можете редактировать свои сообщения
    Вы не можете удалять свои сообщения
    Вы не можете голосовать в опросах
    Вы не можете прикреплять файлы к сообщениям
    Вы можете скачивать файлы
    The Private Life of Sophie Evans / Личная жизнь Софи Эванс [2002 г., Adult, DVD9] Rus смотреть онлайн, скачать торрент picoco.icu