Достать ножи: Стеклянная луковица

MVO

Добыча

Дубляж

Уэнсдэй

1 сезон

Тор

Дубляж

13 клиническая

1 сезон

Жестокая ночь

MVO

Одни из нас

1 сезон

Deluxe

pack

Рекомендуем

30

Пиратка

ВАЖНО

ВАЖНО

Ghostwire

Пиратка

jed

RePack

nioh2

RePack

RDR2

RePack

NEED FOR SPEED™ PAYBACK

RePack

скачать торрент

Кинопоиск HD

Острые козырьки 6 сезон

6 сезон

FAR CRY 6

RePack

скачать торрент

Лицензия

скачать торрент

MVO

1

1 сезон

скачать торрент

1 сезон

скачать торрент

Лицензия

  

Эхо-3 / Echo 3 / Сезон: 1 / Серии: 1-10 из 10 (Пабло Траперо, Марк Боал, Клаудия Льоса) [2022, Боевик, триллер, драма, WEB-DL 1080p] Дубляж [Iyuno / Apple TV+]

Эхо-3 через торрент pb.wtf

Раздают: 4 [ 502 KB/s ]
Размер: 43.9 GB | Добавлен: 25 д. назад | Торрент скачан:28 раз
Смотреть онлайн | Скачать | Поддержите нас   

26-11-2022 22:11 Эхо-3 Скачать торрент  

Эхо-3
Echo 3

Год выпуска: 2022
Страна: США
Выпущено: Apple, Keshet Studios
Жанр: Боевик, триллер, драма
Продолжительность: ~ 00:50:00 серия
Перевод: Дублированный | Iyuno по заказу Apple TV+
Субтитры: Русские (Forced, Full, SDH |Apple TV+|), английские (Forced, Full, SDH), иврит, украинские

Режиссер: Пабло Траперо, Марк Боал, Клаудия Льоса

rating

В ролях: Люк Эванс, Михил Хёйсман, Джессика Коллинз, Джеймс Удом, Элизабет Энвейс, Мария дель Розарио, Кэтрин Хьюз, Падрик Шейдек, Хайме Лопес, Доминик Бёрджесс, Мариана Новак, Патч Дарра, Хуан Пабло Раба, Карлос Бардем, Мартина Гусман, Алехандро Ферт, Фелип Камарго Варгас, Сесилия де лас Баррерас, Деннис Баррелл, Брэдли Уитфорд, Кейт Бертон, Нельсон Камайо, Франка Потенте, Валери Махаффи, Темуэра Моррисон, Доминик Фумуса, Дэвид Де Фриз, Лорен Гальперин, Юсуф Азами, Дэнни Ле Бойер, Мэтт Клун, Роб Марс, Райан Диннинг, Тим Нефф

Описание: Когда блестящая учёная Эмбер Чесборо пропадает на границе Колумбии и Венесуэлы, её брат и муж — элитные спецназовцы армии США — пытаются найти её на фоне партизанской войны и узнают, что у Эмбер есть тайны.

Качество: WEB-DL 1080p
Формат: MKV

Видео: AVC, 1918x802 (2.40:1), 23.976 fps, ~10.1 mbps
Аудио №1: E-AC3 ATMOS, 6 ch, 48 kHz, 768 kbps
Аудио №2: E-AC3 ATMOS, 6 ch, 48 kHz, 768 kbps - Тифлокомментирование
Аудио №3: E-AC3 ATMOS, 6 ch, 48 kHz, 768 kbps
скриншот  скриншот  скриншот  скриншот  скриншот  скриншот  

General
Unique ID : 303765405827568130491053383485468274205 (0xE48716D04162D9472FD5F97452416E1D)
Complete name : Echo.3.S01E01.Flyaway.1080p.ATVP.WEB-DL.DDP5.1.H.264-EniaHD.mkv
Format : Matroska
Format version : Version 4
File size : 5.05 GiB
Duration : 58 min 7 s
Overall bit rate : 12.4 Mb/s
Movie name : Echo 3 S01E01 [Flyaway] - EniaHD
Writing application : mkvmerge v57.0.0 ('Till The End') 64-bit
Writing library : libebml v1.4.2 + libmatroska v1.6.4

Video
ID : 1
Format : AVC
Format/Info : Advanced Video Codec
Format profile : [email protected]
Format settings : CABAC / 5 Ref Frames
Format settings, CABAC : Yes
Format settings, Reference fra : 5 frames
Codec ID : V_MPEG4/ISO/AVC
Duration : 58 min 7 s
Bit rate : 10.1 Mb/s
Width : 1 918 pixels
Height : 802 pixels
Display aspect ratio : 2.40:1
Frame rate mode : Constant
Frame rate : 23.976 (24000/1001) FPS
Color space : YUV
Chroma subsampling : 4:2:0
Bit depth : 8 bits
Scan type : Progressive
Bits/(Pixel*Frame) : 0.275
Stream size : 4.11 GiB (81%)
Default : Yes
Forced : No
Color range : Limited
Color primaries : BT.709
Transfer characteristics : BT.709
Matrix coefficients : BT.709

Audio #1
ID : 2
Format : E-AC-3 JOC
Format/Info : Enhanced AC-3 with Joint Object Coding
Commercial name : Dolby Digital Plus with Dolby Atmos
Codec ID : A_EAC3
Duration : 58 min 7 s
Bit rate mode : Constant
Bit rate : 768 kb/s
Channel(s) : 6 channels
Channel layout : L R C LFE Ls Rs
Sampling rate : 48.0 kHz
Frame rate : 31.250 FPS (1536 SPF)
Compression mode : Lossy
Stream size : 319 MiB (6%)
Language : Russian
Service kind : Complete Main
Default : Yes
Forced : No
Complexity index : 16
Number of dynamic objects : 15
Bed channel count : 1 channel
Bed channel configuration : LFE

Audio #2
ID : 3
Format : E-AC-3 JOC
Format/Info : Enhanced AC-3 with Joint Object Coding
Commercial name : Dolby Digital Plus with Dolby Atmos
Codec ID : A_EAC3
Duration : 58 min 7 s
Bit rate mode : Constant
Bit rate : 768 kb/s
Channel(s) : 6 channels
Channel layout : L R C LFE Ls Rs
Sampling rate : 48.0 kHz
Frame rate : 31.250 FPS (1536 SPF)
Compression mode : Lossy
Stream size : 319 MiB (6%)
Title : Audio Description
Language : Russian
Service kind : Complete Main
Default : No
Forced : No
Complexity index : 16
Number of dynamic objects : 15
Bed channel count : 1 channel
Bed channel configuration : LFE

Audio #3
ID : 4
Format : E-AC-3 JOC
Format/Info : Enhanced AC-3 with Joint Object Coding
Commercial name : Dolby Digital Plus with Dolby Atmos
Codec ID : A_EAC3
Duration : 58 min 7 s
Bit rate mode : Constant
Bit rate : 768 kb/s
Channel(s) : 6 channels
Channel layout : L R C LFE Ls Rs
Sampling rate : 48.0 kHz
Frame rate : 31.250 FPS (1536 SPF)
Compression mode : Lossy
Stream size : 319 MiB (6%)
Language : English
Service kind : Complete Main
Default : No
Forced : No
Complexity index : 16
Number of dynamic objects : 15
Bed channel count : 1 channel
Bed channel configuration : LFE

Text #1
ID : 5
Format : UTF-8
Codec ID : S_TEXT/UTF8
Codec ID/Info : UTF-8 Plain Text
Duration : 56 min 34 s
Bit rate : 3 b/s
Count of elements : 33
Stream size : 1.33 KiB (0%)
Title : Forced
Language : Russian
Default : Yes
Forced : No

Text #2
ID : 6
Format : UTF-8
Codec ID : S_TEXT/UTF8
Codec ID/Info : UTF-8 Plain Text
Duration : 57 min 54 s
Bit rate : 69 b/s
Count of elements : 562
Stream size : 29.3 KiB (0%)
Language : Russian
Default : No
Forced : No

Text #3
ID : 7
Format : UTF-8
Codec ID : S_TEXT/UTF8
Codec ID/Info : UTF-8 Plain Text
Duration : 56 min 34 s
Bit rate : 90 b/s
Count of elements : 702
Stream size : 37.4 KiB (0%)
Title : SDH
Language : Russian
Default : No
Forced : No

Text #4
ID : 8
Format : UTF-8
Codec ID : S_TEXT/UTF8
Codec ID/Info : UTF-8 Plain Text
Duration : 1 min 20 s
Bit rate : 34 b/s
Count of elements : 14
Stream size : 342 Bytes (0%)
Title : Forced
Language : English
Default : No
Forced : No

Text #5
ID : 9
Format : UTF-8
Codec ID : S_TEXT/UTF8
Codec ID/Info : UTF-8 Plain Text
Duration : 53 min 47 s
Bit rate : 49 b/s
Count of elements : 543
Stream size : 19.5 KiB (0%)
Language : English
Default : No
Forced : No

Text #6
ID : 10
Format : UTF-8
Codec ID : S_TEXT/UTF8
Codec ID/Info : UTF-8 Plain Text
Duration : 55 min 0 s
Bit rate : 61 b/s
Count of elements : 682
Stream size : 24.8 KiB (0%)
Title : SDH
Language : English
Default : No
Forced : No

Text #7
ID : 11
Format : UTF-8
Codec ID : S_TEXT/UTF8
Codec ID/Info : UTF-8 Plain Text
Duration : 57 min 23 s
Bit rate : 60 b/s
Count of elements : 561
Stream size : 25.6 KiB (0%)
Language : Hebrew
Default : No
Forced : No

Text #8
ID : 12
Format : UTF-8
Codec ID : S_TEXT/UTF8
Codec ID/Info : UTF-8 Plain Text
Duration : 57 min 46 s
Bit rate : 68 b/s
Count of elements : 559
Stream size : 29.2 KiB (0%)
Language : Ukrainian
Default : No
Forced : No

Когда раздача ведётся путём добавления новых серий, при каждом добавлении создётся новый торрент. Чтобы начать докачку новой серии, пользователям необходимо сделать следующее:
(1) остановить скачивание,
(2) удалить старый торрент у себя из клиента (старые серии удалять не надо),
(3) скачать новый торрент и запустить его у себя в клиенте вместо старого, при этом указать клиенту путь в старую папку, куда и должно происходить скачивание новых серий.
Ваш клиент при этом должен произвести хеширование (проверку) старой папки (если не производит сам - помогите ему сделать это), и будет докачивать только те серии, которых у вас ещё нет. Старые серии при этом не удаляются, а продолжают раздаваться!
Eсли вы уже удалили старые серии, то предотвратить повторную закачку старых серий можно, отжав галочку в соответсвующих местах при запуске нового торрента. По возможности, желательно не удалять старые серии как можно дольше, чтобы релизёр не столько продолжал раздавать старые серии, а смог сконцентрироваться на новых.




Скачать Эхо-3 через торрент https://i2-imageban-ru.translate.goog/out/2022/11/20/87d0925a56f99430158d18b42043e396.jpg Скачать, смотреть онлайн Эхо-3 бесплантно в хорошем качестве Описание: Когда блестящая учёная Эмбер Чесборо пропадает на границе Колумбии и Венесуэлы, её брат и муж — элитные спецназовцы армии США — ... 9.5 10 10
Торрент: Зарегистрирован [2023-01-13 09:31] · скачан: 28 раз
Статус: √ проверено
Размер: 43.9 GB
Как cкачать? Как скачать Эхо-3 через торрент | UTorrent




Последний раз редактировалось: bober100 (2023-01-13 09:31), всего редактировалось 7 раз(а)

28-11-2019 20:33  


Отключить вcю реклaмy на сайте, в т.ч. и в плеере онлайн просмотра!

27-11-2022 10:37 Эхо-3 Скачать торрент  

кто УЖЕ просмотрел ЭТО - отпишитесь оно того стоит смотреть ???



28-11-2022 15:21 Эхо-3 Скачать торрент  

Эванс на Бандераса похож



29-11-2022 05:57 Эхо-3 Скачать торрент  

Wapentake666 писал(а):

кто УЖЕ просмотрел ЭТО - отпишитесь оно того стоит смотреть ???

нелегкие будни представителей штатовского шпецназа. посмотрел три серии, делаю выводы. ну во-первых сквозная история, на третей серии глава закончилась, но не история. подача истории ровная, без твистов и нежданчиков, актеры пучеглазят играют средненько, экшона меньше чем диалогов, музычка так себе, оператор не пьяный. гомиков нет (зато есть лесбы)), небелоамериканцев тоже не особо много. дальше смотреть не буду, не зашло. просто мыкает, когда типы просто вооружаются, едут в чужую страну как на сафари, валят там кучу народу, включая детей и баб, а зрителю намекают, что он должен за этих тварей как-то переживать. особенно когда нам открывают, что ученая подрабатывает на цру. да я все три серии ждал, когда эту кодлу раъзебенят паризаны. к сожалению, партизаны тут - толпа дебилов хипстеров со стволами, управляемая местным свинопасом.
вообще, сложилось впечатление, что съемками командовала дамочка. акценты не на том, ненужное внимание проходным персонажам, идиотская (или не раскрытая) мотивация некоторых персонажей, сопливые диалоги между спецназами, какие-то жеманные интриги и типично женские приемчики. да и в целом не очень интересно подано. низкая оценка вполне соответствует (для серя 6.5 - это очень низкий рейтинг). смотреть можно, если совсем делать нефиг



10-12-2022 04:50 Эхо-3 Скачать торрент  




26-12-2022 16:46 Эхо-3 Скачать торрент  

tamburetko писал(а):

Wapentake666 писал(а):

кто УЖЕ просмотрел ЭТО - отпишитесь оно того стоит смотреть ???

нелегкие будни представителей штатовского шпецназа. посмотрел три серии, делаю выводы. ну во-первых сквозная история, на третей серии глава закончилась, но не история. подача истории ровная, без твистов и нежданчиков, актеры пучеглазят играют средненько, экшона меньше чем диалогов, музычка так себе, оператор не пьяный. гомиков нет (зато есть лесбы)), небелоамериканцев тоже не особо много. дальше смотреть не буду, не зашло. просто мыкает, когда типы просто вооружаются, едут в чужую страну как на сафари, валят там кучу народу, включая детей и баб, а зрителю намекают, что он должен за этих тварей как-то переживать. особенно когда нам открывают, что ученая подрабатывает на цру. да я все три серии ждал, когда эту кодлу раъзебенят паризаны. к сожалению, партизаны тут - толпа дебилов хипстеров со стволами, управляемая местным свинопасом.
вообще, сложилось впечатление, что съемками командовала дамочка. акценты не на том, ненужное внимание проходным персонажам, идиотская (или не раскрытая) мотивация некоторых персонажей, сопливые диалоги между спецназами, какие-то жеманные интриги и типично женские приемчики. да и в целом не очень интересно подано. низкая оценка вполне соответствует (для серя 6.5 - это очень низкий рейтинг). смотреть можно, если совсем делать нефиг

Комент исчерпывающий спс! что-то не хочется это смотреть



03-01-2023 19:32 Эхо-3 Скачать торрент  

прочитал
спс


https://ibb.co/K7bxQ4j



    Дорогой пользователь! Огромная просьба, поблагодарите релизера, оцените раздачу и оставьте свои комментарий, если Вы скачали Эхо-3 через торрент бесплатно!!
    Комментировать посты могут только пользователи прошедшие не сложную регистрацию
    Показать сообщения:    


    Эхо-3 через торрент
    Скачать бесплатно Эхо-3
    Эхо-3 скачать торрент
    Эхо-3 смотреть онлайн
    Cкачать фильм Эхо-3 бесплатно
    Эхо-3 скачать торрент в хорошем качестве
    Эхо-3 смотреть онлайн бесплатно в хорошем качестве
    Вы не можете начинать темы
    Вы не можете отвечать на сообщения
    Вы не можете редактировать свои сообщения
    Вы не можете удалять свои сообщения
    Вы не можете голосовать в опросах
    Вы не можете прикреплять файлы к сообщениям
    Вы можете скачивать файлы
    Эхо-3 / Echo 3 / Сезон: 1 / Серии: 1-10 из 10 [2022, Боевик, триллер, драма, WEB-DL 1080p] Дубляж [Iyuno / Apple TV picoco.icu