Достать ножи: Стеклянная луковица

MVO

Добыча

Дубляж

Уэнсдэй

1 сезон

Тор

Дубляж

13 клиническая

1 сезон

Жестокая ночь

MVO

Одни из нас

1 сезон

Deluxe

pack

Рекомендуем

30

Пиратка

ВАЖНО

ВАЖНО

Ghostwire

Пиратка

jed

RePack

nioh2

RePack

RDR2

RePack

NEED FOR SPEED™ PAYBACK

RePack

скачать торрент

Кинопоиск HD

Острые козырьки 6 сезон

6 сезон

FAR CRY 6

RePack

скачать торрент

Лицензия

скачать торрент

MVO

1

1 сезон

скачать торрент

1 сезон

скачать торрент

Лицензия

  

Я иду искать. Королевская игра / Hounded (Томми Боулдинг) [2022, Ужасы, боевик, WEB-DL 1080p] Дубляж [Paragraph Media]

Я иду искать. Королевская игра через торрент pb.wtf

Раздают: 3 [ 18 KB/s ]
Размер: 4.86 GB | Добавлен: 2 мес. 10 д. назад | Торрент скачан:175 раз
Смотреть онлайн | Скачать | Поддержите нас   

26-11-2022 22:18 Я иду искать. Королевская игра Скачать торрент  

Я иду искать. Королевская игра
Hounded

Год выпуска: 2022
Страна: Великобритания
Студия: Fiction Films
Жанр: Ужасы, боевик
Продолжительность: 01:34:27
Перевод: Дублированный | Paragraph Media
Субтитры: Русские (Forced, full), английские

Режиссер: Томми Боулдинг

rating

В ролях: Саманта Бонд, Малачи Пуллар-Латчмен, Джеймс Лэнс, Ханна Трейлин, Ник Моран, Джеймс Фолкнер, Ларри Ламб, Нобусе Джуниор, Росс Коулз, Мэтт Эддис

Описание: Банда молодых хулиганов проникает в якобы пустующее поместье, принадлежащее членам королевской фамилии, в надежде получить самые легкие деньги в своей жизни. Однако хозяева оказываются дома и вовсе не собираются вызывать полицию. Они готовы встретить непрошеных гостей в соответствии со своими многовековыми традициями. И теперь грабителям придется сыграть с ними в королевскую игру, в которой свои особые правила… выживания.

Качество: WEB-DL 1080p
Формат: MKV

Видео: MPEG-4 AVC, 1920x858, 6595 Kbit/s, 23.976 fps
Аудио #01: 48 kHz, AC3, 5.1, 384 Kbps | Дублированный | Paragraph Media| RUS |
Аудио #02: 48 kHz, AC3, 5.1, 384 Kbps | Оригинал | ENG |
скриншот  скриншот  скриншот  скриншот  скриншот  скриншот  

General
Unique ID : 228456103881246196799862513216557763883 (0xABDF0B8E938F5A3260CD54AC209D4D2B)
Complete name : D:\Videos\Hunted.2022.WEB-DL.1080p.seleZen.mkv
Format : Matroska
Format version : Version 4
File size : 4.86 GiB
Duration : 1 h 34 min
Overall bit rate : 7 365 kb/s
Movie name : Hunted 2022 from seleZen
Encoded date : UTC 2022-11-26 21:43:44
Writing application : mkvmerge v59.0.0 ('Shining Star') 64-bit
Writing library : libebml v1.4.2 + libmatroska v1.6.4

Video
ID : 1
Format : AVC
Format/Info : Advanced Video Codec
Format profile : [email protected]
Format settings : CABAC / 5 Ref Frames
Format settings, CABAC : Yes
Format settings, Reference : 5 frames
Codec ID : V_MPEG4/ISO/AVC
Duration : 1 h 34 min
Bit rate : 6 595 kb/s
Width : 1 920 pixels
Height : 858 pixels
Display aspect ratio : 2.25:1
Frame rate mode : Constant
Frame rate : 23.976 (23976/1000) FPS
Color space : YUV
Chroma subsampling : 4:2:0
Bit depth : 8 bits
Scan type : Progressive
Bits/(Pixel*Frame) : 0.167
Stream size : 4.35 GiB (90%)
Language : English
Default : Yes
Forced : No
Color range : Limited
Color primaries : BT.709
Transfer characteristics : BT.709
Matrix coefficients : BT.709

Audio #1
ID : 2
Format : AC-3
Format/Info : Audio Coding 3
Commercial name : Dolby Digital
Codec ID : A_AC3
Duration : 1 h 34 min
Bit rate mode : Constant
Bit rate : 384 kb/s
Channel(s) : 6 channels
Channel layout : L R C LFE Ls Rs
Sampling rate : 48.0 kHz
Frame rate : 31.250 FPS (1536 SPF)
Compression mode : Lossy
Stream size : 259 MiB (5%)
Title : Дубляж
Language : Russian
Service kind : Complete Main
Default : Yes
Forced : Yes

Audio #2
ID : 3
Format : AC-3
Format/Info : Audio Coding 3
Commercial name : Dolby Digital
Codec ID : A_AC3
Duration : 1 h 34 min
Bit rate mode : Constant
Bit rate : 384 kb/s
Channel(s) : 6 channels
Channel layout : L R C LFE Ls Rs
Sampling rate : 48.0 kHz
Frame rate : 31.250 FPS (1536 SPF)
Compression mode : Lossy
Stream size : 259 MiB (5%)
Title : Original
Language : English
Service kind : Complete Main
Default : No
Forced : No

Text #1
ID : 4
Format : UTF-8
Codec ID : S_TEXT/UTF8
Codec ID/Info : UTF-8 Plain Text
Duration : 1 h 24 min
Bit rate : 2 b/s
Frame rate : 0.006 FPS
Count of elements : 28
Stream size : 1.29 KiB (0%)
Title : Forced
Language : Russian
Default : Yes
Forced : Yes

Text #2
ID : 5
Format : UTF-8
Codec ID : S_TEXT/UTF8
Codec ID/Info : UTF-8 Plain Text
Duration : 1 h 29 min
Bit rate : 52 b/s
Frame rate : 0.155 FPS
Count of elements : 829
Stream size : 34.6 KiB (0%)
Title : Full
Language : Russian
Default : No
Forced : No

Text #3
ID : 6
Format : UTF-8
Codec ID : S_TEXT/UTF8
Codec ID/Info : UTF-8 Plain Text
Duration : 1 h 33 min
Bit rate : 37 b/s
Frame rate : 0.177 FPS
Count of elements : 989
Stream size : 25.9 KiB (0%)
Title : Full
Language : English
Default : No
Forced : No

Text #4
ID : 7
Format : UTF-8
Codec ID : S_TEXT/UTF8
Codec ID/Info : UTF-8 Plain Text
Duration : 1 h 33 min
Bit rate : 50 b/s
Frame rate : 0.256 FPS
Count of elements : 1436
Stream size : 34.5 KiB (0%)
Title : SDH
Language : English
Default : No
Forced : No

Menu
00:00:00.000 : Chapter 01
00:08:57.412 : Chapter 02
00:15:26.676 : Chapter 03
00:21:23.283 : Chapter 04
00:28:30.001 : Chapter 05
00:38:03.700 : Chapter 06
00:45:31.272 : Chapter 07
00:54:46.119 : Chapter 08
01:03:19.632 : Chapter 09
01:13:13.476 : Chapter 10
01:21:14.416 : Chapter 11
01:30:57.040 : Chapter 12




Скачать Я иду искать. Королевская игра через торрент https://i120.fastpic.org/big/2022/1127/03/046c87728eb6586ea0327a5d269f1203.jpg Скачать, смотреть онлайн Я иду искать. Королевская игра бесплантно в хорошем качестве Описание: Банда молодых хулиганов проникает в якобы пустующее поместье, принадлежащее членам королевской фамилии, в надежде получить самые ... 10 10 3
Торрент: Зарегистрирован [2022-11-26 22:18] · скачан: 175 раз
Статус: √ проверено
Размер: 4.86 GB
Как cкачать? Как скачать Я иду искать. Королевская игра через торрент | UTorrent

% Раздел Тема Автор DL S | L
Фильмы 2022-2023 [DVDrip, WEB-DLRip, HDrip] (DUB, MVO) [ 1.71 GB ] Я иду искать. Королевская игра / Hounded | DUB | DLRip-AVC bober100 Скачать
6 | 0
Фильмы 2022-2023 [DVDrip, WEB-DLRip, HDrip] (DUB, MVO) [ 1.46 GB ] Я иду искать. Королевская игра / Hounded | DUB | DLRip bober100 Скачать
4 | 0

28-11-2019 20:33  


Отключить вcю реклaмy на сайте, в т.ч. и в плеере онлайн просмотра!

    Дорогой пользователь! Огромная просьба, поблагодарите релизера, оцените раздачу и оставьте свои комментарий, если Вы скачали Я иду искать. Королевская игра через торрент бесплатно!!
    Комментировать посты могут только пользователи прошедшие не сложную регистрацию
    Показать сообщения:    


    Я иду искать. Королевская игра через торрент
    Скачать бесплатно Я иду искать. Королевская игра
    Я иду искать. Королевская игра скачать торрент
    Я иду искать. Королевская игра смотреть онлайн
    Cкачать фильм Я иду искать. Королевская игра бесплатно
    Я иду искать. Королевская игра скачать торрент в хорошем качестве
    Я иду искать. Королевская игра смотреть онлайн бесплатно в хорошем качестве
    Вы не можете начинать темы
    Вы не можете отвечать на сообщения
    Вы не можете редактировать свои сообщения
    Вы не можете удалять свои сообщения
    Вы не можете голосовать в опросах
    Вы не можете прикреплять файлы к сообщениям
    Вы можете скачивать файлы
    Я иду искать. Королевская игра / Hounded [2022, Ужасы, боевик, WEB-DL 1080p] Дубляж [Paragraph Media] смотреть онлайн, скачать торрент picoco.icu